Начать новую тему Ответить на тему
Статистика раздачи
Размер: 366.72 МБ | Добавлен: 26 июн 2020, 16:57 | Скачали: 0
Сидеров: 0  [0 байт/сек]    Личеров: 0  [0 байт/сек]
Пред. тема | След. тема 

Автор
Сообщение

СообщениеДобавлено: 26 июн 2020, 16:57 

Ответить с цитатой 

The Eternal Afflict - Katharsis
Жанр: EBM
Год выпуска диска: 2003
Производитель диска: (Scanner, Germany)
Аудио кодек: FLAC
Тип рипа: image+.cue
Битрейт аудио: lossless
Продолжительность: 52:41.14
Трэклист:
01. Babylon [3:35]
02. Revolution Radio [3:35]
03. Closer To The Garden [4:52]
04. Crucified [4:05]
05. Godless [4:13]
06. Purgatory [4:27]
07. Ikarus [3:45]
08. Perfect Future World [3:55]
09. Eclipse [3:35]
10. The Witch [3:15]
11. Bleeding Romeo [4:49]
12. Isolation Comes [3:54]
13. Last Day In Hell [4:40]
Источник: Физический носитель
Код:
Exact Audio Copy V0.99 prebeta 4 from 23. January 2008
Отчёт EAC об извлечении, выполненном 30. октября 2009, 7:30
The Eternal Afflict / Katharsis
Дисковод: Optiarc DVD RW AD-7173A   Adapter: 0  ID: 0
Режим чтения                 : Достоверность
Использование точного потока : Да
Отключение кэша аудио        : Да
Использование указателей C2  : Нет
Коррекция смещения при чтении                     : 48
Способность читать области Lead-in и Lead-out     : Нет
Заполнение пропущенных сэмплов тишиной            : Да
Удаление блоков с тишиной в начале и конце        : Нет
При вычислениях CRC использовались нулевые сэмплы : Да
Интерфейс                                         : Установленный внешний ASPI-интерфейс
Выходной формат          : Пользовательский кодировщик
Выбранный битрейт        : 1024 kBit/s
Качество                 : Высокий
Добавление ID3-тэга      : Нет
Утилита сжатия           : C:\Program Files\Exact Audio Copy\Flac\flac.exe
Дополнительные параметры : -6 -V -T "ARTIST=%a" -T "TITLE=%t" -T "ALBUM=%g" -T "DATE=%y" -T "TRACKNUMBER=%n" -T "GENRE=%m" -T "COMMENT=%e" %s -o %d
TOC извлечённого CD
     Трек |   Старт  | Длительность | Начальный сектор | Конечный сектор
    ---------------------------------------------------------------------
       1  |  0:00.00 |    3:35.23   |           0      |      16147
       2  |  3:35.23 |    3:34.74   |       16148      |      32271
       3  |  7:10.22 |    4:51.38   |       32272      |      54134
       4  | 12:01.60 |    4:05.30   |       54135      |      72539
       5  | 16:07.15 |    4:13.11   |       72540      |      91525
       6  | 20:20.26 |    4:27.30   |       91526      |     111580
       7  | 24:47.56 |    3:44.54   |      111581      |     128434
       8  | 28:32.35 |    3:55.13   |      128435      |     146072
       9  | 32:27.48 |    3:34.52   |      146073      |     162174
      10  | 36:02.25 |    3:15.27   |      162175      |     176826
      11  | 39:17.52 |    4:49.05   |      176827      |     198506
      12  | 44:06.57 |    3:54.30   |      198507      |     216086
      13  | 48:01.12 |    4:40.02   |      216087      |     237088
Характеристики диапазона извлечения и сообщения об ошибках
Выбранный диапазон
     Имя файла E:\torrent2\The Eternal Afflict - Katharsis.wav
     Пиковый уровень 100.0 %
     Качество диапазона 100.0 %
     CRC теста CCE03D4D
     CRC копии CCE03D4D
     Копирование... OK
Ошибок не произошло
AccurateRip: сводка
Трек  1  нет в базе данных
Трек  2  нет в базе данных
Трек  3  нет в базе данных
Трек  4  нет в базе данных
Трек  5  нет в базе данных
Трек  6  нет в базе данных
Трек  7  нет в базе данных
Трек  8  нет в базе данных
Трек  9  нет в базе данных
Трек 10  нет в базе данных
Трек 11  нет в базе данных
Трек 12  нет в базе данных
Трек 13  нет в базе данных
Ни одного трека нет в базе AccurateRip
Конец отчёта
Хочешь скачать, но не можешь из-за отсутствия сидов - пиши в личку!
Правила, инструкции, FAQ!!!
Торрент  Добавлен [26 июн 2020, 16:57] Скачать торрент Магнет ссылка
Скачать торрент
[ Размер 15.36 КБ / Просмотров 4 ]

Статус
Проверен 
 
Размер  366.72 МБ
Приватный: Нет (DHT включён)
.torrent скачан  0
 


     Отправить личное сообщение
   
Страница 1 из 1
Показать сообщения за:  Поле сортировки  
Начать новую тему Ответить на тему


Сейчас этот форум просматривают: нет зарегистрированных пользователей и гости: 0


Вы не можете начинать темы
Вы не можете отвечать на сообщения
Вы не можете редактировать свои сообщения
Вы не можете удалять свои сообщения
Вы не можете добавлять вложения

Перейти:  
cron