Начать новую тему Ответить на тему
Статистика раздачи
Размер: 542.76 МБ | Добавлен: 26 июн 2020, 16:54 | Скачали: 0
Сидеров: 0  [0 байт/сек]    Личеров: 0  [0 байт/сек]
Пред. тема | След. тема 

Автор
Сообщение

СообщениеДобавлено: 26 июн 2020, 16:54 

Ответить с цитатой 

E.R.R.A. / Light Of Love
Жанр: EBM / techno trance
Страна-производитель диска: Poland
Год издания диска: 2003
Издатель (лейбл): Black Flames Records
Номер по каталогу: BFCD 013
Аудиокодек: FLAC (*.flac)
Тип рипа: image+.cue
Битрейт аудио: lossless
Продолжительность: 1:07:49.40
Источник (релизер): Физический носитель
Наличие сканов в содержимом раздачи: да
Треклист:
01. Blue Day [2:47]
02. Not There [5:08]
03. Energy In Your Eyes [5:09]
04. She Is From The Stars [6:13]
05. De Luces Rojas [4:39]
06. Orange Sea [3:22]
07. That Lovely Smile [3:45]
08. Light Of Love [7:29]
09. Menara [6:13]
10. Beauty In The World [6:52]
11. Seems To Be A Light [6:02]
12. Energy In Your Eyes (Energetica mix by Angels & Agony) [4:19]
13. Light Of Love (Clubmission mix) [5:52]
Код:
Exact Audio Copy V0.99 prebeta 5 from 4. May 2009
Отчёт EAC об извлечении, выполненном 27. сентября 2010, 13:53
E.R.R.A. / Light Of Love
Дисковод: Optiarc DVD RW AD-7173A   Adapter: 0  ID: 0
Режим чтения                 : Достоверность
Использование точного потока : Да
Отключение кэша аудио        : Да
Использование указателей C2  : Нет
Коррекция смещения при чтении                     : 48
Способность читать области Lead-in и Lead-out     : Нет
Заполнение пропущенных сэмплов тишиной            : Да
Удаление блоков с тишиной в начале и конце        : Нет
При вычислениях CRC использовались нулевые сэмплы : Да
Интерфейс                                         : Установленный внешний ASPI-интерфейс
Выходной формат          : Пользовательский кодировщик
Выбранный битрейт        : 1024 kBit/s
Качество                 : Высокий
Добавление ID3-тэга      : Нет
Утилита сжатия           : C:\Program Files\Exact Audio Copy\flac.exe
Дополнительные параметры : -6 -V -T "ARTIST=%a" -T "TITLE=%t" -T "ALBUM=%g" -T "DATE=%y" -T "TRACKNUMBER=%n" -T "GENRE=%m" -T "COMMENT=%e" %s -o %d
TOC извлечённого CD
     Трек |   Старт  | Длительность | Начальный сектор | Конечный сектор
    ---------------------------------------------------------------------
       1  |  0:00.00 |    2:46.68   |           0      |      12517
       2  |  2:46.68 |    5:08.11   |       12518      |      35628
       3  |  7:55.04 |    5:09.31   |       35629      |      58834
       4  | 13:04.35 |    6:13.35   |       58835      |      86844
       5  | 19:17.70 |    4:38.44   |       86845      |     107738
       6  | 23:56.39 |    3:21.39   |      107739      |     122852
       7  | 27:18.03 |    3:44.62   |      122853      |     139714
       8  | 31:02.65 |    7:29.32   |      139715      |     173421
       9  | 38:32.22 |    6:13.03   |      173422      |     201399
      10  | 44:45.25 |    6:51.43   |      201400      |     232267
      11  | 51:36.68 |    6:01.43   |      232268      |     259385
      12  | 57:38.36 |    4:19.27   |      259386      |     278837
      13  | 61:57.63 |    5:51.52   |      278838      |     305214
Характеристики диапазона извлечения и сообщения об ошибках
Выбранный диапазон
     Имя файла H:\СКАЧКА\FLAC\1 TORRENT\E.R.R.A. - Light Of Love.wav
     Пиковый уровень 97.2 %
     Качество диапазона 99.9 %
     CRC теста 358636A3
     CRC копии 358636A3
     Копирование... OK
Ошибок не произошло
AccurateRip: сводка
Трек  1  точное извлечение (доверие 1)  [D84BDB73]
Трек  2  точное извлечение (доверие 1)  [F49F750B]
Трек  3  точное извлечение (доверие 1)  [D217B620]
Трек  4  точное извлечение (доверие 1)  [11D49709]
Трек  5  точное извлечение (доверие 1)  [EC3E0A9D]
Трек  6  точное извлечение (доверие 1)  [8D047568]
Трек  7  точное извлечение (доверие 1)  [CE693C41]
Трек  8  точное извлечение (доверие 1)  [3E9B5D20]
Трек  9  точное извлечение (доверие 1)  [06BFDBC7]
Трек 10  точное извлечение (доверие 1)  [9EE62941]
Трек 11  точное извлечение (доверие 1)  [4B0FFF95]
Трек 12  точность не определена (достоверность 1)  [BFF26FD1], AccurateRip вернул [F8452A38]
Трек 13  нет в базе данных
11 трек(и) скопированы точно
 1 трек(и) не удалось проверить на точность
 1 трек(и) не содержатся в базе AccurateRip
Некоторые треки не прошли проверку на точность
Конец отчёта
Правила, инструкции, FAQ!!!
Торрент  Добавлен [26 июн 2020, 16:54] Скачать торрент Магнет ссылка
Скачать торрент
[ Размер 11.59 КБ / Просмотров 4 ]

Статус
Проверен 
 
Размер  542.76 МБ
Приватный: Нет (DHT включён)
.torrent скачан  0
 


     Отправить личное сообщение
   
Страница 1 из 1
Показать сообщения за:  Поле сортировки  
Начать новую тему Ответить на тему


Сейчас этот форум просматривают: нет зарегистрированных пользователей и гости: 0


Вы не можете начинать темы
Вы не можете отвечать на сообщения
Вы не можете редактировать свои сообщения
Вы не можете удалять свои сообщения
Вы не можете добавлять вложения

Перейти:  
cron