Начать новую тему Ответить на тему
Статистика раздачи
Размер: 1.05 ГБ | Добавлен: 26 июн 2020, 17:23 | Скачали: 0
Сидеров: 0  [0 байт/сек]    Личеров: 0  [0 байт/сек]
Пред. тема | След. тема 

Автор
Сообщение

СообщениеДобавлено: 26 июн 2020, 17:23 

Ответить с цитатой 

XPQ-21 - Alive (Limited, 2xCD)
Жанр: EBM / Techno / Trance / Industrial
Год выпуска диска: 2006
Производитель диска: Germany
Аудио кодек: APE
Тип рипа: image+.cue
Битрейт аудио: lossless
Продолжительность: 2:36:35
Трэклист:
1-01 Gork Tut (2:28)
1-02 Rockin' Silver Knight (5:12)
1-03 Everything (6:10)
1-04 White And Alive (Club) (5:41)
1-05 Jesus Was Gay (6:12)
1-06 Sonne (6:26)
1-07 In Your Eyes (8:21)
1-08 Dead Body (4:38)
1-09 Beautiful (Recover) (4:48)
1-10 Saviour (4:49)
1-11 Barcelona (7:06)
1-12 Changes (5:35)
1-13 Bumble Bee (4:02)
1-14 The First One (5:14)
2-01 Dead Body (3:19) Remix - Dope Stars Inc.
2-02 Dead Body (2:21) Remix - Alice In Videoland
2-03 Dead Body (6:02) Remix - Autoaggression
2-04 Rockin' Silver Knight (3:59) Remix - Ayria
2-05 Rockin' Silver Knight (4:29) Remix - SkinjoB
2-06 Dead Body (5:58) Remix - Dubnoodles
2-07 Jesus Was Gay (4:11) Remix - Angel Theory
2-08 Beautiful (4:31) Remix - Funker Vogt
2-09 Beautiful (6:00) Remix - SkinjoB
2-10 In Your Eyes (4:42) Remix - Three Cold Men
2-11 Rockin' Silver Knight (6:36) Remix - Angel Molina
2-12 Rockin' Silver Knight (5:06) Remix - Eltron
2-13 Rockin' Silver Knight (5:00) Remix - Christian Straub
2-14 In Your Eyes (Short Mix) (6:42)
2-15 In Your Eyes (6:17) Remix - Massimo Vivona
2-16 In Your Eyes (4:27) Remix - Christian Straub
Доп. информация: [Trisol] Music Group GmbH; TRI 261 CD
Код:
Exact Audio Copy V0.99 prebeta 3 from 28. July 2007
EAC extraction logfile from 22. January 2009, 19:37
XPQ-21 / Alive, CD01
Used drive  : PIONEER DVD-RW  DVR-110D   Adapter: 1  ID: 1
Read mode               : Secure
Utilize accurate stream : Yes
Defeat audio cache      : Yes
Make use of C2 pointers : No
Read offset correction                      : 48
Overread into Lead-In and Lead-Out          : No
Fill up missing offset samples with silence : Yes
Delete leading and trailing silent blocks   : No
Null samples used in CRC calculations       : Yes
Used interface                              : Native Win32 interface for Win NT & 2000
Used output format : Internal WAV Routines
Sample format      : 44.100 Hz; 16 Bit; Stereo
TOC of the extracted CD
     Track |   Start  |  Length  | Start sector | End sector
    ---------------------------------------------------------
        1  |  0:00.00 |  2:28.41 |         0    |    11140
        2  |  2:28.41 |  5:12.57 |     11141    |    34597
        3  |  7:41.23 |  6:10.57 |     34598    |    62404
        4  | 13:52.05 |  5:41.21 |     62405    |    88000
        5  | 19:33.26 |  6:12.04 |     88001    |   115904
        6  | 25:45.30 |  6:26.16 |    115905    |   144870
        7  | 32:11.46 |  8:21.40 |    144871    |   182485
        8  | 40:33.11 |  4:38.46 |    182486    |   203381
        9  | 45:11.57 |  4:48.69 |    203382    |   225050
       10  | 50:00.51 |  4:49.17 |    225051    |   246742
       11  | 54:49.68 |  7:06.58 |    246743    |   278750
       12  | 61:56.51 |  5:35.11 |    278751    |   303886
       13  | 67:31.62 |  4:02.46 |    303887    |   322082
       14  | 71:34.33 |  5:14.17 |    322083    |   345649
Range status and errors
Selected range
     Filename G:\OUT\XPQ-21 - Alive\cd01\CDImage.wav
     Peak level 99.9 %
     Range quality 100.0 %
     Test CRC 55CCA34F
     Copy CRC 55CCA34F
     Copy OK
No errors occurred
AccurateRip summary
Track  1  not present in database
Track  2  not present in database
Track  3  not present in database
Track  4  not present in database
Track  5  not present in database
Track  6  not present in database
Track  7  not present in database
Track  8  not present in database
Track  9  not present in database
Track 10  not present in database
Track 11  not present in database
Track 12  not present in database
Track 13  not present in database
Track 14  not present in database
None of the tracks are present in the AccurateRip database
End of status report
Код:
AUDIOCHECKER v2.0 beta (build 457) - by Dester - opdester@freemail.hu
~~~~~~~~~~~~~~~~~~~~~~~~~~~~~~~~~~
-=== DO NOT EDIT THIS FILE! ===-
Path: ...\cd01
1 -=- CDImage.wav -=- CDDA (100%)
190127764
Код:
Exact Audio Copy V0.99 prebeta 3 from 28. July 2007
EAC extraction logfile from 22. January 2009, 20:21
Xpq-21 / Alive, CD02
Used drive  : PIONEER DVD-RW  DVR-110D   Adapter: 1  ID: 1
Read mode               : Secure
Utilize accurate stream : Yes
Defeat audio cache      : Yes
Make use of C2 pointers : No
Read offset correction                      : 48
Overread into Lead-In and Lead-Out          : No
Fill up missing offset samples with silence : Yes
Delete leading and trailing silent blocks   : No
Null samples used in CRC calculations       : Yes
Used interface                              : Native Win32 interface for Win NT & 2000
Used output format : Internal WAV Routines
Sample format      : 44.100 Hz; 16 Bit; Stereo
TOC of the extracted CD
     Track |   Start  |  Length  | Start sector | End sector
    ---------------------------------------------------------
        1  |  0:00.00 |  3:19.27 |         0    |    14951
        2  |  3:19.27 |  2:21.51 |     14952    |    25577
        3  |  5:41.03 |  6:02.66 |     25578    |    52793
        4  | 11:43.69 |  3:59.27 |     52794    |    70745
        5  | 15:43.21 |  4:29.50 |     70746    |    90970
        6  | 20:12.71 |  5:58.12 |     90971    |   117832
        7  | 26:11.08 |  4:11.31 |    117833    |   136688
        8  | 30:22.39 |  4:31.36 |    136689    |   157049
        9  | 34:54.00 |  6:00.19 |    157050    |   184068
       10  | 40:54.19 |  4:42.20 |    184069    |   205238
       11  | 45:36.39 |  6:36.35 |    205239    |   234973
       12  | 52:12.74 |  5:06.50 |    234974    |   257973
       13  | 57:19.49 |  5:00.65 |    257974    |   280538
       14  | 62:20.39 |  6:42.52 |    280539    |   310740
       15  | 69:03.16 |  6:17.35 |    310741    |   339050
       16  | 75:20.51 |  4:27.00 |    339051    |   359075
Range status and errors
Selected range
     Filename G:\OUT\XPQ-21 - Alive\cd02\CDImage.wav
     Peak level 99.9 %
     Range quality 100.0 %
     Test CRC 16688C7C
     Copy CRC 16688C7C
     Copy OK
No errors occurred
AccurateRip summary
Track  1  not present in database
Track  2  not present in database
Track  3  not present in database
Track  4  not present in database
Track  5  not present in database
Track  6  not present in database
Track  7  not present in database
Track  8  not present in database
Track  9  not present in database
Track 10  not present in database
Track 11  not present in database
Track 12  not present in database
Track 13  not present in database
Track 14  not present in database
Track 15  not present in database
Track 16  not present in database
None of the tracks are present in the AccurateRip database
End of status report
Код:
AUDIOCHECKER v2.0 beta (build 457) - by Dester - opdester@freemail.hu
~~~~~~~~~~~~~~~~~~~~~~~~~~~~~~~~~~
-=== DO NOT EDIT THIS FILE! ===-
Path: ...\cd02
1 -=- CDImage.wav -=- CDDA (100%)
190127764
Правила, инструкции, FAQ!!!
Торрент  Добавлен [26 июн 2020, 17:23] Скачать торрент Магнет ссылка
Скачать торрент
[ Размер 11.71 КБ / Просмотров 11 ]

Статус
Проверен 
 
Размер  1.05 ГБ
Приватный: Нет (DHT включён)
.torrent скачан  0
 


     Отправить личное сообщение
   
Страница 1 из 1
Показать сообщения за:  Поле сортировки  
Начать новую тему Ответить на тему


Сейчас этот форум просматривают: нет зарегистрированных пользователей и гости: 0


Вы не можете начинать темы
Вы не можете отвечать на сообщения
Вы не можете редактировать свои сообщения
Вы не можете удалять свои сообщения
Вы не можете добавлять вложения

Перейти:  
cron