Начать новую тему Ответить на тему
Статистика раздачи
Размер: 616.61 МБ | Добавлен: 26 июн 2020, 19:04 | Скачали: 0
Сидеров: 0  [0 байт/сек]    Личеров: 0  [0 байт/сек]
Пред. тема | След. тема 

Автор
Сообщение

СообщениеДобавлено: 26 июн 2020, 19:04 

Ответить с цитатой 

Sin D.N.A. / Revelate
Жанр: EBM, Techno
Носитель: CD
Страна-производитель диска (релиза): Japan
Год издания: 2012
Издатель (лейбл): Deathwatch Asia
Номер по каталогу: DWA 214
Страна исполнителя (группы): USA
Аудиокодек: FLAC (*.flac)
Тип рипа: image+.cue
Продолжительность: 11:17:54:24
Источник: собственный рип
Наличие сканов в содержимом раздачи: нет
Треклист:
1 Dying World 5:24
2 Reverence In Punishment 5:28
3 Hate Is The Law 5:40
4 Conquest And Defeat 6:06
5 Up Evil 4:00
6 Doomsday Requiem 4:45
7 Son Of Perdition 5:53
8 Thorns For Misery 5:33
9 Become Chaos 4:52
10 Broken Fate 5:10
11 Time Passed 5:45
12 Machine Devil 4:19

Exclusive Bonus Tracks
13 Hate Is The Law (Kriminal MInds Remix) 4:41
14 Up Evil (Detroit Diesel Remix) 4:49
15 Hate Is The Law (Die Sektor Remix) 5:22
Код:
Exact Audio Copy V1.0 beta 3 from 29. August 2011
Отчёт EAC об извлечении, выполненном 9. ноября 2019, 0:21
Sin DNA / Revelate
Дисковод: TSSTcorpCDDVDW SH-224DB   Adapter: 1  ID: 0
Режим чтения                 : Достоверность
Использование точного потока : Да
Отключение кэша аудио        : Да
Использование указателей C2  : Нет
Коррекция смещения при чтении                     : 6
Способность читать области Lead-in и Lead-out     : Нет
Заполнение пропущенных сэмплов тишиной            : Да
Удаление блоков с тишиной в начале и конце        : Нет
При вычислениях CRC использовались нулевые сэмплы : Да
Интерфейс                                         : Встроенный Win32-интерфейс для Win NT/2000
Выходной формат          : Пользовательский кодировщик
Выбранный битрейт        : 128 kBit/s
Качество                 : Высокий
Добавление ID3-тега      : Нет
Утилита сжатия           : C:\Program Files (x86)\FLAC\flac.exe
Дополнительные параметры : -V -8 -T "Date=%year%" -T "Genre=%genre%" %source%
TOC извлечённого CD
     Трек |   Старт  | Длительность | Начальный сектор | Конечный сектор
    ---------------------------------------------------------------------
       1  |  0:00.00 |    5:24.58   |           0      |      24357
       2  |  5:24.58 |    5:28.07   |       24358      |      48964
       3  | 10:52.65 |    5:40.47   |       48965      |      74511
       4  | 16:33.37 |    6:07.02   |       74512      |     102038
       5  | 22:40.39 |    4:00.35   |      102039      |     120073
       6  | 26:40.74 |    4:45.17   |      120074      |     141465
       7  | 31:26.16 |    5:53.35   |      141466      |     167975
       8  | 37:19.51 |    5:32.06   |      167976      |     192881
       9  | 42:51.57 |    4:52.05   |      192882      |     214786
      10  | 47:43.62 |    5:09.35   |      214787      |     237996
      11  | 52:53.22 |    5:45.01   |      237997      |     263872
      12  | 58:38.23 |    4:21.03   |      263873      |     283450
      13  | 62:59.26 |    4:43.07   |      283451      |     304682
      14  | 67:42.33 |    4:49.28   |      304683      |     326385
      15  | 72:31.61 |    5:22.38   |      326386      |     350573
Характеристики диапазона извлечения и сообщения об ошибках
Выбранный диапазон
     Имя файла C:\EAC\Sin D.N.A. ‎– Revelate - 2012 CD\Sin DNA - Revelate.wav
     Пиковый уровень 98.9 %
     Скорость извлечения 3.4 X
     Качество диапазона 100.0 %
     CRC теста 01F7566E
     CRC копии 01F7566E
     Копирование... OK
Ошибок не произошло
AccurateRip: сводка
Трек  1  : извлечено точно (доверие 2)  [8FE54D1C]  (AR v2)
Трек  2  : извлечено точно (доверие 2)  [BE2C4AE1]  (AR v2)
Трек  3  : извлечено точно (доверие 2)  [003302A2]  (AR v2)
Трек  4  : извлечено точно (доверие 2)  [14AF2E7F]  (AR v2)
Трек  5  : извлечено точно (доверие 2)  [AD76B4A4]  (AR v2)
Трек  6  : извлечено точно (доверие 2)  [E397E46F]  (AR v2)
Трек  7  : извлечено точно (доверие 2)  [63686268]  (AR v2)
Трек  8  : извлечено точно (доверие 2)  [57C61F9E]  (AR v2)
Трек  9  : извлечено точно (доверие 2)  [6F3BA1AC]  (AR v2)
Трек 10  : извлечено точно (доверие 2)  [E2BAFAC9]  (AR v2)
Трек 11  : извлечено точно (доверие 2)  [7B4FB013]  (AR v2)
Трек 12  : извлечено точно (доверие 2)  [24B71CE5]  (AR v2)
Трек 13  : извлечено точно (доверие 2)  [56B9DCA0]  (AR v2)
Трек 14  : извлечено точно (доверие 2)  [D3FDC340]  (AR v2)
Трек 15  : извлечено точно (доверие 2)  [54C2848A]  (AR v2)
Все треки извлечены точно
Конец отчёта
==== Контрольная сумма отчёта 77410C524EA927400F6CCD244F8632E60BCF9B24EB5E49D208100448010DA20D ====
Код:
REM GENRE EBM,Trance
REM DATE 2012
REM DISCID DA12420F
REM COMMENT "ExactAudioCopy v1.0b3"
PERFORMER "Sin DNA"
TITLE "Revelate"
FILE "Sin DNA - Revelate.flac" WAVE
  TRACK 01 AUDIO
    TITLE "Dying World"
    PERFORMER "Sin DNA"
    INDEX 01 00:00:00
  TRACK 02 AUDIO
    TITLE "Reverence In Punishment"
    PERFORMER "Sin DNA"
    INDEX 00 05:24:03
    INDEX 01 05:24:58
  TRACK 03 AUDIO
    TITLE "Hate Is The Law "
    PERFORMER "Sin DNA"
    INDEX 00 10:52:47
    INDEX 01 10:52:65
  TRACK 04 AUDIO
    TITLE "Conquest And Defeat"
    PERFORMER "Sin DNA"
    INDEX 00 16:33:10
    INDEX 01 16:33:37
  TRACK 05 AUDIO
    TITLE "Up Evil"
    PERFORMER "Sin DNA"
    INDEX 00 22:39:43
    INDEX 01 22:40:39
  TRACK 06 AUDIO
    TITLE "Doomsday Requiem"
    PERFORMER "Sin DNA"
    INDEX 00 26:40:51
    INDEX 01 26:40:74
  TRACK 07 AUDIO
    TITLE "Son Of Perdition"
    PERFORMER "Sin DNA"
    INDEX 00 31:25:45
    INDEX 01 31:26:16
  TRACK 08 AUDIO
    TITLE "Thorns For Misery"
    PERFORMER "Sin DNA"
    INDEX 00 37:18:60
    INDEX 01 37:19:51
  TRACK 09 AUDIO
    TITLE "Become Chaos"
    PERFORMER "Sin DNA"
    INDEX 00 42:51:37
    INDEX 01 42:51:57
  TRACK 10 AUDIO
    TITLE "Broken Fate"
    PERFORMER "Sin DNA"
    INDEX 00 47:43:57
    INDEX 01 47:43:62
  TRACK 11 AUDIO
    TITLE "Time Passed"
    PERFORMER "Sin DNA"
    INDEX 00 52:53:02
    INDEX 01 52:53:22
  TRACK 12 AUDIO
    TITLE "Machine Devil "
    PERFORMER "Sin DNA"
    INDEX 00 58:38:04
    INDEX 01 58:38:23
  TRACK 13 AUDIO
    TITLE "Hate Is The Law (KRIMINAL MINDS Remix)"
    PERFORMER "Sin DNA"
    INDEX 00 62:57:27
    INDEX 01 62:59:26
  TRACK 14 AUDIO
    TITLE "Up Evil (DETROIT DIESEL Remix)"
    PERFORMER "Sin DNA"
    INDEX 00 67:40:34
    INDEX 01 67:42:33
  TRACK 15 AUDIO
    TITLE "Hate Is The Law (DIE SEKTOR Remix)"
    PERFORMER "Sin DNA"
    INDEX 00 72:31:31
    INDEX 01 72:31:61
Правила, инструкции, FAQ!!!
Торрент  Добавлен [26 июн 2020, 19:04] Скачать торрент Магнет ссылка
Скачать торрент
[ Размер 12.68 КБ / Просмотров 9 ]

Статус
Проверен 
 
Размер  616.61 МБ
Приватный: Нет (DHT включён)
.torrent скачан  0
 


     Отправить личное сообщение
   
Страница 1 из 1
Показать сообщения за:  Поле сортировки  
Начать новую тему Ответить на тему


Сейчас этот форум просматривают: нет зарегистрированных пользователей и гости: 0


Вы не можете начинать темы
Вы не можете отвечать на сообщения
Вы не можете редактировать свои сообщения
Вы не можете удалять свои сообщения
Вы не можете добавлять вложения

Перейти:  
cron