Начать новую тему Ответить на тему
Статистика раздачи
Размер: 408.31 МБ | Добавлен: 26 июн 2020, 20:30 | Скачали: 0
Сидеров: 0  [0 байт/сек]    Личеров: 0  [0 байт/сек]
Пред. тема | След. тема 

Автор
Сообщение

СообщениеДобавлено: 26 июн 2020, 20:30 

Ответить с цитатой 

Solitary Experiments - Advance Into Unknown
Жанр: EBM, Techno-Industrial
Год выпуска диска: 2003
Производитель диска: Германия
Аудио кодек: FLAC
Тип рипа: image+.cue
Битрейт аудио: lossless
Продолжительность: 48:27.11
Трэклист:
01. A Passage Beyond
02. Miracle
03. Watching Over You
04. Overkill
05. Do You Feel?
06. The Essence Of Mind
07. Crossworlds
08. Secrets
09. Wasteland
10. The Edge Of Life
11. Paradise
Доп. информация:
Dennis Schober (Лирика, Вокал, Эффекты, Перфоменс)
Michael Thielemann (Сэмплинг, Программинг, Инженеринг)
Steve Graeber (Синтез, Перкуссии, Сэмплинг)
Код:
Exact Audio Copy V0.99 prebeta 1 from 25. May 2007
Отчёт EAC об извлечении, выполненном 7. января 2002, 3:17
Solitary Experiments / Advance Into Unknown
Дисковод: PIONEER DVD-RW  DVR-111D   Adapter: 0  ID: 0
Режим чтения                 : Достоверность
Использование точного потока : Да
Отключение кэша аудио        : Да
Использование указателей C2  : Нет
Коррекция смещения при чтении                 : 48
Способность читать области Lead-in и Lead-out : Нет
Заполнение пропущенных сэмплов тишиной        : Да
Удаление блоков с тишиной в начале и конце    : Нет
Интерфейс                                     : Встроенный Win32-интерфейс для Win NT/2000
Выходной формат          : Пользовательский кодировщик
Выбранный битрейт        : 1024 kBit/s
Качество                 : Высокий
Добавление ID3-тэга      : Нет
Утилита сжатия           : C:\Program Files\Exact Audio Copy\FLAC\FLAC.EXE
Дополнительные параметры : -8 -V -T "ARTIST=%a" -T "TITLE=%t" -T "ALBUM=%g" -T "DATE=%y" -T "TRACKNUMBER=%n" -T "GENRE=%m" -T "COMMENT=%e" %s -o %d
TOC извлечённого CD
     Трек |   Старт  | Длительность | Начальный сектор | Конечный сектор
    ---------------------------------------------------------------------
       1  |  0:00.00 |    3:26.73   |           0      |      15522
       2  |  3:26.73 |    5:12.03   |       15523      |      38925
       3  |  8:39.01 |    5:08.28   |       38926      |      62053
       4  | 13:47.29 |    5:14.28   |       62054      |      85631
       5  | 19:01.57 |    4:58.31   |       85632      |     108012
       6  | 24:00.13 |    5:42.05   |      108013      |     133667
       7  | 29:42.18 |    2:29.60   |      133668      |     144902
       8  | 32:12.03 |    5:15.38   |      144903      |     168565
       9  | 37:27.41 |    6:16.25   |      168566      |     196790
      10  | 43:43.66 |    4:43.20   |      196791      |     218035
      11  | 48:27.11 |    5:13.26   |      218036      |     241536
Характеристики диапазона извлечения и сообщения об ошибках
Выбранный диапазон
     Имя файла D:\123\NEW UNREALESED\Solitary Experiments - Advance Into Unknown [2003]\Solitary Experiments - Advance Into Unknown.wav
     Пиковый уровень 100.0 %
     Качество диапазона 100.0 %
     CRC теста 75BAC025
     CRC копии 75BAC025
     Копирование... OK
Ошибок не произошло
Конец отчёта
AUDIOCHECKER v2.0 beta (build 457) - by Dester - opdester@freemail.hu
~~~~~~~~~~~~~~~~~~~~~~~~~~~~~~~~~~
-=== DO NOT EDIT THIS FILE! ===-
Path: ...\Solitary Experiments - Advance Into Unknown [2003]
1 -=- Solitary Experiments - Advance Into Unknown.flac -=- CDDA (100%)
50245620
Правила, инструкции, FAQ!!!
Торрент  Добавлен [26 июн 2020, 20:30] Скачать торрент Магнет ссылка
Скачать торрент
[ Размер 16.69 КБ / Просмотров 10 ]

Статус
Проверен 
 
Размер  408.31 МБ
Приватный: Нет (DHT включён)
.torrent скачан  0
 


     Отправить личное сообщение
   
Страница 1 из 1
Показать сообщения за:  Поле сортировки  
Начать новую тему Ответить на тему


Сейчас этот форум просматривают: нет зарегистрированных пользователей и гости: 0


Вы не можете начинать темы
Вы не можете отвечать на сообщения
Вы не можете редактировать свои сообщения
Вы не можете удалять свои сообщения
Вы не можете добавлять вложения

Перейти:  
cron