Начать новую тему Ответить на тему
Статистика раздачи
Размер: 276.91 МБ | Добавлен: 26 июн 2020, 19:44 | Скачали: 0
Сидеров: 0  [0 байт/сек]    Личеров: 0  [0 байт/сек]
Пред. тема | След. тема 

Автор
Сообщение

СообщениеДобавлено: 26 июн 2020, 19:44 

Ответить с цитатой 

Kode IV / Insane
Жанр: EBM, Techno, Industrial
Страна-производитель диска: Belgium
Год издания диска: 1992
Издатель (лейбл): KK Records
Номер по каталогу: KK 078 CD
Страна: Belgium
Аудио кодек: FLAC (*.flac)
Тип рипа: tracks+.cue
Битрейт аудио: lossless
Продолжительность: 00:39:39
Наличие сканов в содержимом раздачи: да (discogs.com)
Треклист:
01. Accelerate (04:13)
02. Insane (04:46)
03. Fear Into Power (04:02)
04. Success (03:57)
05. Interview (00:27)
06. Hollywood (04:17)
07. Electrostatisch (02:36)
08. Disobey (05:18)
09. Antichrist (00:06)
10. Fight (04:49)
11. Truth (05:02)
Код:
Exact Audio Copy V0.99 prebeta 4 from 23. January 2008
EAC extraction logfile from 15. February 2009, 22:48
Kode IV / Insane
Used drive  : ATAPI   DVD A  DH20A4H   Adapter: 0  ID: 0
Read mode               : Secure
Utilize accurate stream : Yes
Defeat audio cache      : Yes
Make use of C2 pointers : No
Read offset correction                      : 6
Overread into Lead-In and Lead-Out          : No
Fill up missing offset samples with silence : Yes
Delete leading and trailing silent blocks   : No
Null samples used in CRC calculations       : Yes
Used interface                              : Installed external ASPI interface
Gap handling                                : Appended to previous track
Used output format              : User Defined Encoder
Selected bitrate                : 192 kBit/s
Quality                         : High
Add ID3 tag                     : No
Command line compressor         : C:\Program Files\flac-1.1.4-win\bin\flac.exe
Additional command line options : -8 -A tukey(0.25) -A gauss(0.1875) -b 4096 -V -T "artist=%a" -T "title=%t" -T "album=%g" -T "date=%y" -T "tracknumber=%n" -T "genre=%m" %s --sector-align
Use compression offset          : 0
TOC of the extracted CD
     Track |   Start  |  Length  | Start sector | End sector
    ---------------------------------------------------------
        1  |  0:00.00 |  4:13.63 |         0    |    19037
        2  |  4:13.63 |  4:46.55 |     19038    |    40542
        3  |  9:00.43 |  4:02.12 |     40543    |    58704
        4  | 13:02.55 |  3:57.60 |     58705    |    76539
        5  | 17:00.40 |  0:27.00 |     76540    |    78564
        6  | 17:27.40 |  4:17.08 |     78565    |    97847
        7  | 21:44.48 |  2:36.62 |     97848    |   109609
        8  | 24:21.35 |  5:18.30 |    109610    |   133489
        9  | 29:39.65 |  0:06.33 |    133490    |   133972
       10  | 29:46.23 |  4:49.27 |    133973    |   155674
       11  | 34:35.50 |  5:03.00 |    155675    |   178399
Track  1
     Filename Y:\Kode IV - Insane\01 - Accelerate.wav
     Pre-gap length  0:00:02.00
     Peak level 99.1 %
     Track quality 100.0 %
     Test CRC 1771867F
     Copy CRC 1771867F
     Accurately ripped (confidence 1)  [BD4D69A5]
     Copy OK
Track  2
     Filename Y:\Kode IV - Insane\02 - Insane.wav
     Peak level 91.6 %
     Track quality 100.0 %
     Test CRC FFA26100
     Copy CRC FFA26100
     Accurately ripped (confidence 1)  [04FCAE61]
     Copy OK
Track  3
     Filename Y:\Kode IV - Insane\03 - Fear Into Power.wav
     Peak level 96.7 %
     Track quality 100.0 %
     Test CRC D1A72DED
     Copy CRC D1A72DED
     Accurately ripped (confidence 1)  [2A295171]
     Copy OK
Track  4
     Filename Y:\Kode IV - Insane\04 - Success.wav
     Peak level 94.0 %
     Track quality 100.0 %
     Test CRC 3EC3E6C6
     Copy CRC 3EC3E6C6
     Accurately ripped (confidence 1)  [91CD7EB2]
     Copy OK
Track  5
     Filename Y:\Kode IV - Insane\05 - Interview.wav
     Pre-gap length  0:00:00.01
     Peak level 40.2 %
     Track quality 100.0 %
     Test CRC 5934E487
     Copy CRC 5934E487
     Accurately ripped (confidence 1)  [36EA04CC]
     Copy OK
Track  6
     Filename Y:\Kode IV - Insane\06 - Hollywood.wav
     Peak level 93.0 %
     Track quality 100.0 %
     Test CRC F4C4A4B1
     Copy CRC F4C4A4B1
     Accurately ripped (confidence 1)  [5CF35AB9]
     Copy OK
Track  7
     Filename Y:\Kode IV - Insane\07 - Electrostatisch.wav
     Peak level 99.3 %
     Track quality 100.0 %
     Test CRC 7B32DB9E
     Copy CRC 7B32DB9E
     Accurately ripped (confidence 1)  [E220D16C]
     Copy OK
Track  8
     Filename Y:\Kode IV - Insane\08 - Disobey.wav
     Pre-gap length  0:00:00.04
     Peak level 94.5 %
     Track quality 100.0 %
     Test CRC 2AF24E94
     Copy CRC 2AF24E94
     Accurately ripped (confidence 1)  [4BA7C410]
     Copy OK
Track  9
     Filename Y:\Kode IV - Insane\09 - Antichrist.wav
     Peak level 54.0 %
     Track quality 100.0 %
     Test CRC 080C3B61
     Copy CRC 080C3B61
     Accurately ripped (confidence 1)  [553F4ADB]
     Copy OK
Track 10
     Filename Y:\Kode IV - Insane\10 - Fight.wav
     Peak level 94.7 %
     Track quality 100.0 %
     Test CRC 637AAA7B
     Copy CRC 637AAA7B
     Accurately ripped (confidence 1)  [8113C9AD]
     Copy OK
Track 11
     Filename Y:\Kode IV - Insane\11 - Truth.wav
     Peak level 93.7 %
     Track quality 100.0 %
     Test CRC DB82FC2E
     Copy CRC DB82FC2E
     Accurately ripped (confidence 1)  [73882C8A]
     Copy OK
All tracks accurately ripped
No errors occurred
End of status report
Код:
REM GENRE Industrial
REM DATE 1992
REM DISCID 90094A0B
REM COMMENT "ExactAudioCopy v0.99pb4"
PERFORMER "Kode IV"
TITLE "Insane"
FILE "01 - Accelerate.wav" WAVE
  TRACK 01 AUDIO
    TITLE "Accelerate"
    PERFORMER "Kode IV"
    INDEX 01 00:00:00
FILE "02 - Insane.wav" WAVE
  TRACK 02 AUDIO
    TITLE "Insane"
    PERFORMER "Kode IV"
    INDEX 01 00:00:00
FILE "03 - Fear Into Power.wav" WAVE
  TRACK 03 AUDIO
    TITLE "Fear Into Power"
    PERFORMER "Kode IV"
    INDEX 01 00:00:00
FILE "04 - Success.wav" WAVE
  TRACK 04 AUDIO
    TITLE "Success"
    PERFORMER "Kode IV"
    INDEX 01 00:00:00
  TRACK 05 AUDIO
    TITLE "Interview"
    PERFORMER "Kode IV"
    INDEX 00 03:57:59
FILE "05 - Interview.wav" WAVE
    INDEX 01 00:00:00
FILE "06 - Hollywood.wav" WAVE
  TRACK 06 AUDIO
    TITLE "Hollywood"
    PERFORMER "Kode IV"
    INDEX 01 00:00:00
FILE "07 - Electrostatisch.wav" WAVE
  TRACK 07 AUDIO
    TITLE "Electrostatisch"
    PERFORMER "Kode IV"
    INDEX 01 00:00:00
  TRACK 08 AUDIO
    TITLE "Disobey"
    PERFORMER "Kode IV"
    INDEX 00 02:36:59
FILE "08 - Disobey.wav" WAVE
    INDEX 01 00:00:00
FILE "09 - Antichrist.wav" WAVE
  TRACK 09 AUDIO
    TITLE "Antichrist"
    PERFORMER "Kode IV"
    INDEX 01 00:00:00
FILE "10 - Fight.wav" WAVE
  TRACK 10 AUDIO
    TITLE "Fight"
    PERFORMER "Kode IV"
    INDEX 01 00:00:00
FILE "11 - Truth.wav" WAVE
  TRACK 11 AUDIO
    TITLE "Truth"
    PERFORMER "Kode IV"
    INDEX 01 00:00:00
Правила, инструкции, FAQ!!!
Торрент  Добавлен [26 июн 2020, 19:44] Скачать торрент Магнет ссылка
Скачать торрент
[ Размер 12.31 КБ / Просмотров 13 ]

Статус
Проверен 
 
Размер  276.91 МБ
Приватный: Нет (DHT включён)
.torrent скачан  0
 


     Отправить личное сообщение
   
Страница 1 из 1
Показать сообщения за:  Поле сортировки  
Начать новую тему Ответить на тему


Сейчас этот форум просматривают: нет зарегистрированных пользователей и гости: 0


Вы не можете начинать темы
Вы не можете отвечать на сообщения
Вы не можете редактировать свои сообщения
Вы не можете удалять свои сообщения
Вы не можете добавлять вложения

Перейти:  
cron