Начать новую тему Ответить на тему
Статистика раздачи
Размер: 345.7 МБ | Добавлен: 26 июн 2020, 17:01 | Скачали: 0
Сидеров: 0  [0 байт/сек]    Личеров: 0  [0 байт/сек]
Пред. тема | След. тема 

Автор
Сообщение

СообщениеДобавлено: 26 июн 2020, 17:01 

Ответить с цитатой 

Fixmer/McCarthy - Between The Devil...
Жанр: EBM,Techno,Industrial
Год выпуска диска: 2004
Производитель диска: Russia
Аудио кодек: APE
Тип рипа: image+.cue
Битрейт аудио: lossless
Продолжительность: 60:01
Трэклист:
01.Freefall (5:28)
02.Come Inside (3:56)
03.Splitter (6:00)
04.Through a Screen (5:47)
05.I Run (5:44)
06.By Any Other Name (6:48)
07.You Don't Know Me (6:09)
08.Tight Fit (2:26)
09.Destroy (6:01)
10.Nutsplit (2:03)
11.Spinner (3:12)
12.You Want It (6:20)
Доп. информация:
Exact Audio Copy V0.99 prebeta 4 from 23. January 2008
Отчёт EAC об извлечении, выполненном 19. августа 2008, 16:36
Fixmer\McCarthy / Between the Devil...
Дисковод: Optiarc DVD RW AD-7170S Adapter: 2 ID: 0
Режим чтения : Достоверность
Использование точного потока : Да
Отключение кэша аудио : Да
Использование указателей C2 : Нет
Коррекция смещения при чтении : 48
Способность читать области Lead-in и Lead-out : Нет
Заполнение пропущенных сэмплов тишиной : Да
Удаление блоков с тишиной в начале и конце : Нет
При вычислениях CRC использовались нулевые сэмплы : Да
Интерфейс : Установленный внешний ASPI-интерфейс
Выходной формат : Monkey's Audio Lossless Encoder v3.99 DLL
Формат сэмплов : High Lossless Compression
TOC извлечённого CD
Трек | Старт | Длительность | Начальный сектор | Конечный сектор
---------------------------------------------------------------------
1 | 0:00.00 | 5:28.71 | 0 | 24670
2 | 5:28.71 | 3:56.23 | 24671 | 42393
3 | 9:25.19 | 6:00.64 | 42394 | 69457
4 | 15:26.08 | 5:47.06 | 69458 | 95488
5 | 21:13.14 | 5:44.47 | 95489 | 121335
6 | 26:57.61 | 6:48.41 | 121336 | 151976
7 | 33:46.27 | 6:09.59 | 151977 | 179710
8 | 39:56.11 | 2:26.00 | 179711 | 190660
9 | 42:22.11 | 6:01.20 | 190661 | 217755
10 | 48:23.31 | 2:03.35 | 217756 | 227015
11 | 50:26.66 | 3:12.00 | 227016 | 241415
12 | 53:38.66 | 6:20.71 | 241416 | 269986
Характеристики диапазона извлечения и сообщения об ошибках
Выбранный диапазон
Имя файла C:\Documents and Settings\Администратор\Рабочий стол\Fixmer-McCarthy - Between the Devil...- 2004\Fixmer McCarthy - Between the Devil....ape
Пиковый уровень 100.0 %
Качество диапазона 100.0 %
CRC копии 8A2D8892
Копирование... OK
Ошибок не произошло
AccurateRip: сводка
Трек 1 нет в базе данных
Трек 2 нет в базе данных
Трек 3 нет в базе данных
Трек 4 нет в базе данных
Трек 5 нет в базе данных
Трек 6 нет в базе данных
Трек 7 нет в базе данных
Трек 8 нет в базе данных
Трек 9 нет в базе данных
Трек 10 нет в базе данных
Трек 11 нет в базе данных
Трек 12 нет в базе данных
Ни одного трека нет в базе AccurateRip
Конец отчёта
Правила, инструкции, FAQ!!!
Торрент  Добавлен [26 июн 2020, 17:01] Скачать торрент Магнет ссылка
Скачать торрент
[ Размер 14.28 КБ / Просмотров 3 ]

Статус
Проверен 
 
Размер  345.7 МБ
Приватный: Нет (DHT включён)
.torrent скачан  0
 


     Отправить личное сообщение
   
Страница 1 из 1
Показать сообщения за:  Поле сортировки  
Начать новую тему Ответить на тему


Сейчас этот форум просматривают: нет зарегистрированных пользователей и гости: 0


Вы не можете начинать темы
Вы не можете отвечать на сообщения
Вы не можете редактировать свои сообщения
Вы не можете удалять свои сообщения
Вы не можете добавлять вложения

Перейти:  
cron