Начать новую тему Ответить на тему
Статистика раздачи
Размер: 447.68 МБ | Добавлен: 26 июн 2020, 19:55 | Скачали: 0
Сидеров: 0  [0 байт/сек]    Личеров: 0  [0 байт/сек]
Пред. тема | След. тема 

Автор
Сообщение

СообщениеДобавлено: 26 июн 2020, 19:55 

Ответить с цитатой 

Headscan / Implant - Uturn 2: An Exploration In Techno
Жанр: EBM, Techno
Год выпуска диска: 2002
Производитель диска: Canada
Аудио кодек: FLAC
Тип рипа: tracks+.cue
Битрейт аудио: lossless
Трэклист:
1 Headscan Ascend (5:20)
Featuring - Dan Xue
2 Headscan Dissolution (Club Mix) (5:40)
3 Headscan Components (Remix By Datmachine) (7:20)
Remix - Dance Against The Machine
4 Headscan Slipstream (5:20)
5 Headscan Avatar (5:47)
6 Implant Distant Future (4:43)
7 Implant Whispers (Delobbo Chromatic Mix) (7:31)
Remix - Delobbo
Vocals - Jennifer Parkin
8 Implant Wetwired (5:26)
9 Implant Gateway (Ovaka Mix) (6:56)
Remix - Ovaka
Vocals - Jennifer Parkin
10 Implant So Right (Sanka Mix) (6:45)
Remix - Sanka
Vocals - Jennifer Parkin
Доп. информация:
Exact Audio Copy V0.99 prebeta 4 from 23. January 2008
EAC extraction logfile from 26. December 2008, 1:22
Headscan & Implant / UTurn 2
Used drive : _NEC DVD+-RW ND-6650A Adapter: 2 ID: 0
Read mode : Secure
Utilize accurate stream : Yes
Defeat audio cache : Yes
Make use of C2 pointers : No
Read offset correction : 48
Overread into Lead-In and Lead-Out : No
Fill up missing offset samples with silence : Yes
Delete leading and trailing silent blocks : No
Null samples used in CRC calculations : Yes
Used interface : Installed external ASPI interface
Gap handling : Appended to previous track
Used output format : User Defined Encoder
Selected bitrate : 1024 kBit/s
Quality : High
Add ID3 tag : No
Command line compressor : C:\Program Files\Exact Audio Copy2\Flac\flac.exe
Additional command line options : -8 -V -T "ARTIST=%a" -T "TITLE=%t" -T "ALBUM=%g" -T "DATE=%y" -T "TRACKNUMBER=%n" -T "GENRE=%m" -T "COMMENT=%e" %s -o %d
TOC of the extracted CD
Track | Start | Length | Start sector | End sector
---------------------------------------------------------
1 | 0:00.00 | 5:20.64 | 0 | 24063
2 | 5:20.64 | 5:40.74 | 24064 | 49637
3 | 11:01.63 | 7:20.40 | 49638 | 82677
4 | 18:22.28 | 5:20.69 | 82678 | 106746
5 | 23:43.22 | 5:47.21 | 106747 | 132792
6 | 29:30.43 | 4:43.29 | 132793 | 154046
7 | 34:13.72 | 7:31.54 | 154047 | 187925
8 | 41:45.51 | 5:26.60 | 187926 | 212435
9 | 47:12.36 | 6:56.16 | 212436 | 243651
10 | 54:08.52 | 6:45.73 | 243652 | 274099
Track 1
Filename C:\EAC\01-Ascend (featuring Dan Xue , Headscan.wav
Pre-gap length 0:00:02.00
Peak level 99.9 %
Track quality 100.0 %
Test CRC 4E2EE508
Copy CRC 4E2EE508
Copy OK
Track 2
Filename C:\EAC\02-Dissolution (Club Mix) , Headscan.wav
Peak level 99.9 %
Track quality 100.0 %
Test CRC 1CB45853
Copy CRC 1CB45853
Copy OK
Track 3
Filename C:\EAC\03-Components (rmx by datmachine) , Headscan.wav
Peak level 100.0 %
Track quality 100.0 %
Test CRC C0E2AFAE
Copy CRC C0E2AFAE
Copy OK
Track 4
Filename C:\EAC\04-Slipstream , Headscan.wav
Peak level 99.9 %
Track quality 100.0 %
Test CRC B9EA9FDA
Copy CRC B9EA9FDA
Copy OK
Track 5
Filename C:\EAC\05-Avatar , Headscan.wav
Peak level 99.9 %
Track quality 100.0 %
Test CRC E2331B09
Copy CRC E2331B09
Copy OK
Track 6
Filename C:\EAC\06-Distant Future , Implant.wav
Peak level 99.9 %
Track quality 100.0 %
Test CRC 2B2232DE
Copy CRC 2B2232DE
Copy OK
Track 7
Filename C:\EAC\07-Whispers (Delobbo Chromatic Mix) , Implant.wav
Peak level 99.9 %
Track quality 100.0 %
Test CRC 8F15A571
Copy CRC 8F15A571
Copy OK
Track 8
Filename C:\EAC\08-Wetwired , Implant.wav
Peak level 99.9 %
Track quality 100.0 %
Test CRC 1DE29C87
Copy CRC 1DE29C87
Copy OK
Track 9
Filename C:\EAC\09-Gateway (Ovaka Mix) , Implant.wav
Peak level 99.9 %
Track quality 100.0 %
Test CRC 3A5A9F36
Copy CRC 3A5A9F36
Copy OK
Track 10
Filename C:\EAC\10-So Right (Sanka Mix) , Implant.wav
Peak level 99.9 %
Track quality 100.0 %
Test CRC 1A215063
Copy CRC 1A215063
Copy OK
No errors occurred
End of status report
Label: Artoffact Records
Catalog#: AOF016
Credits: Artwork By - Hertzmedia Design Studio
Artwork By [Logo] - Steph Dumais
Mastered By - Alex Matheu
Notes: Mastered at Sector 9 Studios.
Правила, инструкции, FAQ!!!
Торрент  Добавлен [26 июн 2020, 19:55] Скачать торрент Магнет ссылка
Скачать торрент
[ Размер 18.73 КБ / Просмотров 10 ]

Статус
Проверен 
 
Размер  447.68 МБ
Приватный: Нет (DHT включён)
.torrent скачан  0
 


     Отправить личное сообщение
   
Страница 1 из 1
Показать сообщения за:  Поле сортировки  
Начать новую тему Ответить на тему


Сейчас этот форум просматривают: нет зарегистрированных пользователей и гости: 0


Вы не можете начинать темы
Вы не можете отвечать на сообщения
Вы не можете редактировать свои сообщения
Вы не можете удалять свои сообщения
Вы не можете добавлять вложения

Перейти:  
cron