Начать новую тему Ответить на тему
Статистика раздачи
Размер: 453.52 МБ | Добавлен: 26 июн 2020, 19:57 | Скачали: 0
Сидеров: 0  [0 байт/сек]    Личеров: 0  [0 байт/сек]
Пред. тема | След. тема 

Автор
Сообщение

СообщениеДобавлено: 26 июн 2020, 19:57 

Ответить с цитатой 

Inertia - Programmed To Respond
Жанр: EBM / Techno / Electro
Год выпуска диска: 1997
Производитель диска: Germany
Аудио кодек: APE
Тип рипа: image+.cue
Битрейт аудио: lossless
Продолжительность: 68:40
Трэклист:
1 Retaliate (7:18)
2 Mind Energy (5:36)
3 Enraged (5:00)
4 Truster (7:53)
5 Coded (5:42)
6 The Seduction (5:58)
7 Sandhorse Of .. (0:26)
8 Destroy (4:25)
9 Cryonica (5:28)
........................................
98 Retaliate (Dancefloor Attack Mix) (6:41)
99 Mind Energy (Charly's Point Mix) (8:12)
Доп. информация: Khazad-Dûm; KHA 013
Tracks 10 to 97 are all silence. Tracks 98 and 99 are only mentioned in booklet.
Код:
Exact Audio Copy V0.99 prebeta 4 from 23. January 2008
EAC extraction logfile from 3. December 2008, 14:43
Inertia / Programmed To Respond
Used drive  : PIONEER DVD-RW  DVR-112D   Adapter: 1  ID: 1
Read mode               : Secure
Utilize accurate stream : Yes
Defeat audio cache      : Yes
Make use of C2 pointers : No
Read offset correction                      : 48
Overread into Lead-In and Lead-Out          : No
Fill up missing offset samples with silence : Yes
Delete leading and trailing silent blocks   : No
Null samples used in CRC calculations       : Yes
Used interface                              : Installed external ASPI interface
Used output format : Internal WAV Routines
Sample format      : 44.100 Hz; 16 Bit; Stereo
TOC of the extracted CD
     Track |   Start  |  Length  | Start sector | End sector
    ---------------------------------------------------------
        1  |  0:00.00 |  7:18.48 |         0  |       32897
        2  |  7:18.48 |  5:36.70 |     32898  |       58167
        3  | 12:55.43 |  5:00.20 |     58168  |       80687
        4  | 17:55.63 |  7:53.20 |     80688  |      116182
        5  | 25:49.08 |  5:42.58 |    116183  |      141890
        6  | 31:31.66 |  5:58.68 |    141891  |      168808
        7  | 37:30.59 |  0:26.62 |    168809  |      170820
        8  | 37:57.46 |  4:25.58 |    170821  |      190753
        9  | 42:23.29 |  5:28.32 |    190754  |      215385
       10  | 47:51.61 |  0:04.00 |    215386  |      215685
       11  | 47:55.61 |  0:04.01 |    215686  |      215986
       12  | 47:59.62 |  0:04.00 |    215987  |      216286
       13  | 48:03.62 |  0:04.00 |    216287  |      216586
       14  | 48:07.62 |  0:04.01 |    216587  |      216887
       15  | 48:11.63 |  0:04.00 |    216888  |      217187
       16  | 48:15.63 |  0:04.00 |    217188  |      217487
       17  | 48:19.63 |  0:04.01 |    217488  |      217788
       18  | 48:23.64 |  0:04.00 |    217789  |      218088
       19  | 48:27.64 |  0:04.00 |    218089  |      218388
       20  | 48:31.64 |  0:04.00 |    218389  |      218688
       21  | 48:35.64 |  0:04.01 |    218689  |      218989
       22  | 48:39.65 |  0:04.00 |    218990  |      219289
       23  | 48:43.65 |  0:04.00 |    219290  |      219589
       24  | 48:47.65 |  0:04.01 |    219590  |      219890
       25  | 48:51.66 |  0:04.00 |    219891  |      220190
       26  | 48:55.66 |  0:04.00 |    220191  |      220490
       27  | 48:59.66 |  0:04.01 |    220491  |      220791
       28  | 49:03.67 |  0:04.00 |    220792  |      221091
       29  | 49:07.67 |  0:04.00 |    221092  |      221391
       30  | 49:11.67 |  0:04.01 |    221392  |      221692
       31  | 49:15.68 |  0:04.00 |    221693  |      221992
       32  | 49:19.68 |  0:04.00 |    221993  |      222292
       33  | 49:23.68 |  0:04.00 |    222293  |      222592
       34  | 49:27.68 |  0:04.01 |    222593  |      222893
       35  | 49:31.69 |  0:04.00 |    222894  |      223193
       36  | 49:35.69 |  0:04.00 |    223194  |      223493
       37  | 49:39.69 |  0:04.01 |    223494  |      223794
       38  | 49:43.70 |  0:04.00 |    223795  |      224094
       39  | 49:47.70 |  0:04.00 |    224095  |      224394
       40  | 49:51.70 |  0:04.01 |    224395  |      224695
       41  | 49:55.71 |  0:04.00 |    224696  |      224995
       42  | 49:59.71 |  0:04.00 |    224996  |      225295
       43  | 50:03.71 |  0:04.01 |    225296  |      225596
       44  | 50:07.72 |  0:04.00 |    225597  |      225896
       45  | 50:11.72 |  0:04.00 |    225897  |      226196
       46  | 50:15.72 |  0:04.00 |    226197  |      226496
       47  | 50:19.72 |  0:04.01 |    226497  |      226797
       48  | 50:23.73 |  0:04.00 |    226798  |      227097
       49  | 50:27.73 |  0:04.00 |    227098  |      227397
       50  | 50:31.73 |  0:04.01 |    227398  |      227698
       51  | 50:35.74 |  0:04.00 |    227699  |      227998
       52  | 50:39.74 |  0:04.00 |    227999  |      228298
       53  | 50:43.74 |  0:04.01 |    228299  |      228599
       54  | 50:48.00 |  0:04.00 |    228600  |      228899
       55  | 50:52.00 |  0:04.00 |    228900  |      229199
       56  | 50:56.00 |  0:04.01 |    229200  |      229500
       57  | 51:00.01 |  0:04.00 |    229501  |      229800
       58  | 51:04.01 |  0:04.00 |    229801  |      230100
       59  | 51:08.01 |  0:04.00 |    230101  |      230400
       60  | 51:12.01 |  0:04.01 |    230401  |      230701
       61  | 51:16.02 |  0:04.00 |    230702  |      231001
       62  | 51:20.02 |  0:04.00 |    231002  |      231301
       63  | 51:24.02 |  0:04.01 |    231302  |      231602
       64  | 51:28.03 |  0:04.00 |    231603  |      231902
       65  | 51:32.03 |  0:04.00 |    231903  |      232202
       66  | 51:36.03 |  0:04.01 |    232203  |      232503
       67  | 51:40.04 |  0:04.00 |    232504  |      232803
       68  | 51:44.04 |  0:04.00 |    232804  |      233103
       69  | 51:48.04 |  0:04.01 |    233104  |      233404
       70  | 51:52.05 |  0:04.00 |    233405  |      233704
       71  | 51:56.05 |  0:04.00 |    233705  |      234004
       72  | 52:00.05 |  0:04.00 |    234005  |      234304
       73  | 52:04.05 |  0:04.01 |    234305  |      234605
       74  | 52:08.06 |  0:04.00 |    234606  |      234905
       75  | 52:12.06 |  0:04.00 |    234906  |      235205
       76  | 52:16.06 |  0:04.01 |    235206  |      235506
       77  | 52:20.07 |  0:04.00 |    235507  |      235806
       78  | 52:24.07 |  0:04.00 |    235807  |      236106
       79  | 52:28.07 |  0:04.01 |    236107  |      236407
       80  | 52:32.08 |  0:04.00 |    236408  |      236707
       81  | 52:36.08 |  0:04.00 |    236708  |      237007
       82  | 52:40.08 |  0:04.01 |    237008  |      237308
       83  | 52:44.09 |  0:04.00 |    237309  |      237608
       84  | 52:48.09 |  0:04.00 |    237609  |      237908
       85  | 52:52.09 |  0:04.00 |    237909  |      238208
       86  | 52:56.09 |  0:04.01 |    238209  |      238509
       87  | 53:00.10 |  0:04.00 |    238510  |      238809
       88  | 53:04.10 |  0:04.00 |    238810  |      239109
       89  | 53:08.10 |  0:04.01 |    239110  |      239410
       90  | 53:12.11 |  0:04.00 |    239411  |      239710
       91  | 53:16.11 |  0:04.00 |    239711  |      240010
       92  | 53:20.11 |  0:04.01 |    240011  |      240311
       93  | 53:24.12 |  0:04.00 |    240312  |      240611
       94  | 53:28.12 |  0:04.00 |    240612  |      240911
       95  | 53:32.12 |  0:04.01 |    240912  |      241212
       96  | 53:36.13 |  0:04.00 |    241213  |      241512
       97  | 53:40.13 |  0:06.00 |    241513  |      241962
       98  | 53:46.13 |  6:41.09 |    241963  |      272046
       99  | 60:27.22 |  8:12.68 |    272047  |      309014
Range status and errors
Selected range
   Filename J:\Inertia - Programmed To Respond\CDImage.wav
   Peak level 100.0 %
   Range quality 100.0 %
   Test CRC DE5E4A34
   Copy CRC DE5E4A34
   Copy OK
No errors occurred
AccurateRip summary
Track  1  accurately ripped (confidence 2)  [9C2DD0DF]
Track  2  accurately ripped (confidence 2)  [06512B72]
Track  3  not present in database
Track  4  not present in database
Track  5  not present in database
Track  6  not present in database
Track  7  not present in database
Track  8  not present in database
Track  9  not present in database
Track 10  not present in database
Track 11  not present in database
Track 12  not present in database
Track 13  not present in database
Track 14  not present in database
Track 15  not present in database
Track 16  not present in database
Track 17  not present in database
Track 18  not present in database
Track 19  not present in database
Track 20  not present in database
Track 21  not present in database
Track 22  not present in database
Track 23  not present in database
Track 24  not present in database
Track 25  not present in database
Track 26  not present in database
Track 27  not present in database
Track 28  not present in database
Track 29  not present in database
Track 30  not present in database
Track 31  not present in database
Track 32  not present in database
Track 33  not present in database
Track 34  not present in database
Track 35  not present in database
Track 36  not present in database
Track 37  not present in database
Track 38  not present in database
Track 39  not present in database
Track 40  not present in database
Track 41  not present in database
Track 42  not present in database
Track 43  not present in database
Track 44  not present in database
Track 45  not present in database
Track 46  not present in database
Track 47  not present in database
Track 48  not present in database
Track 49  not present in database
Track 50  not present in database
Track 51  not present in database
Track 52  not present in database
Track 53  not present in database
Track 54  not present in database
Track 55  not present in database
Track 56  not present in database
Track 57  not present in database
Track 58  not present in database
Track 59  not present in database
Track 60  not present in database
Track 61  not present in database
Track 62  not present in database
Track 63  not present in database
Track 64  not present in database
Track 65  not present in database
Track 66  not present in database
Track 67  not present in database
Track 68  not present in database
Track 69  not present in database
Track 70  not present in database
Track 71  not present in database
Track 72  not present in database
Track 73  not present in database
Track 74  not present in database
Track 75  not present in database
Track 76  not present in database
Track 77  not present in database
Track 78  not present in database
Track 79  not present in database
Track 80  not present in database
Track 81  not present in database
Track 82  not present in database
Track 83  not present in database
Track 84  not present in database
Track 85  not present in database
Track 86  not present in database
Track 87  not present in database
Track 88  not present in database
Track 89  not present in database
Track 90  not present in database
Track 91  not present in database
Track 92  not present in database
Track 93  not present in database
Track 94  not present in database
Track 95  not present in database
Track 96  not present in database
Track 97  not present in database
Track 98  not present in database
Track 99  not present in database
 2 track(s) accurately ripped
97 track(s) not present in the AccurateRip database
Some tracks are not present in the AccurateRip database
End of status report
Код:
AUDIOCHECKER v2.0 beta (build 457) - by Dester - opdester@freemail.hu
~~~~~~~~~~~~~~~~~~~~~~~~~~~~~~~~~~
-=== DO NOT EDIT THIS FILE! ===-
Path: ...\Inertia - Programmed To Respond
01 -=- CDImage.wav -=- CDDA (100%)
190127764
Правила, инструкции, FAQ!!!
Торрент  Добавлен [26 июн 2020, 19:57] Скачать торрент Магнет ссылка
Скачать торрент
[ Размер 18.65 КБ / Просмотров 6 ]

Статус
Проверен 
 
Размер  453.52 МБ
Приватный: Нет (DHT включён)
.torrent скачан  0
 


     Отправить личное сообщение
   
Страница 1 из 1
Показать сообщения за:  Поле сортировки  
Начать новую тему Ответить на тему


Сейчас этот форум просматривают: нет зарегистрированных пользователей и гости: 0


Вы не можете начинать темы
Вы не можете отвечать на сообщения
Вы не можете редактировать свои сообщения
Вы не можете удалять свои сообщения
Вы не можете добавлять вложения

Перейти:  
cron