Начать новую тему Ответить на тему
Статистика раздачи
Размер: 245.67 МБ | Добавлен: 26 июн 2020, 21:11 | Скачали: 0
Сидеров: 0  [0 байт/сек]    Личеров: 0  [0 байт/сек]
Пред. тема | След. тема 

Автор
Сообщение

СообщениеДобавлено: 26 июн 2020, 21:11 

Ответить с цитатой 

Various Artists - A Tribute To Depeche Mode - The Re:Covered Singles (Alfa Matrix - AM2127EPCD)
Жанр: EBM, Techno, Electro, Industrial
Год выпуска диска: 2009
Производитель диска: Belgium
Аудио кодек: FLAC
Тип рипа: tracks+.cue
Битрейт аудио: lossless
Продолжительность: 32:27
Трэклист:
01. Komor Kommando Feat. J-L De Meyer (FRONT 242) - John The Revelator (Club Mix) 04:36
02. Virgins O.R. Pigeons Vs. Robert Vadney - People Are People (Club Mix) 07:09
03. Seize - Shake The Disease (D!rty House B!tch Mix) 04:22
04. Krystal System - Master And Servant (Disco Mix) 03:42
05. Helalyn Flowers - I Feel You 03:14
06. I:scintilla - I Want It All (Essence Of Mind Mix) 06:10
07. Psy'aviah - Stripped 03:16
Это бонус-диск к релизу (EBM, Electro, Industrial) VA - Alfa Matrix Re:Covered - A Tribute To Depeche Mode - 2009, FLAC (tracks+.cue), lossless
Код:
Exact Audio Copy V0.99 prebeta 4 from 23. January 2008
EAC extraction logfile from 20. May 2009, 21:47
Various Artist / The Re:Covered Singles - A Tribute To Depeche Mode
Used drive  : ASUS    DRW-2014S1T   Adapter: 2  ID: 0
Read mode               : Secure
Utilize accurate stream : Yes
Defeat audio cache      : Yes
Make use of C2 pointers : No
Read offset correction                      : 6
Overread into Lead-In and Lead-Out          : No
Fill up missing offset samples with silence : Yes
Delete leading and trailing silent blocks   : No
Null samples used in CRC calculations       : Yes
Used interface                              : Installed external ASPI interface
Gap handling                                : Appended to previous track
Used output format              : User Defined Encoder
Selected bitrate                : 320 kBit/s
Quality                         : High
Add ID3 tag                     : No
Command line compressor         : C:\Program Files\Exact Audio Copy\FLAC\flac.exe
Additional command line options : -V -8 -T "artist=%a" -T "title=%t" -T "album=%g" -T "date=%y" -T "tracknumber=%n" -T "genre=%m" %s
TOC of the extracted CD
     Track |   Start  |  Length  | Start sector | End sector
    ---------------------------------------------------------
        1  |  0:00.00 |  4:35.52 |         0    |    20676
        2  |  4:35.52 |  7:09.12 |     20677    |    52863
        3  | 11:44.64 |  4:21.34 |     52864    |    72472
        4  | 16:06.23 |  3:41.49 |     72473    |    89096
        5  | 19:47.72 |  3:13.47 |     89097    |   103618
        6  | 23:01.44 |  6:10.06 |    103619    |   131374
        7  | 29:11.50 |  3:16.05 |    131375    |   146079
Track  1
     Filename D:\Downloads\LOSSLESS\Alfa Matrix - re covered - a tribute to Depeche Mode\AM2127EPCD - a tribute to Depeche Mode\01 - Komor Kommando feat. Jean Luc de Meyer - John The Revelator [club mix].wav
     Pre-gap length  0:00:02.00
     Peak level 98.7 %
     Track quality 100.0 %
     Test CRC D3E4B5E2
     Copy CRC D3E4B5E2
     Track not present in AccurateRip database
     Copy OK
Track  2
     Filename D:\Downloads\LOSSLESS\Alfa Matrix - re covered - a tribute to Depeche Mode\AM2127EPCD - a tribute to Depeche Mode\02 - Virgins O.R Pigeons meet Robert Vadney - People Are People [club mix].wav
     Pre-gap length  0:00:02.00
     Peak level 98.7 %
     Track quality 100.0 %
     Test CRC 2D73FC8F
     Copy CRC 2D73FC8F
     Track not present in AccurateRip database
     Copy OK
Track  3
     Filename D:\Downloads\LOSSLESS\Alfa Matrix - re covered - a tribute to Depeche Mode\AM2127EPCD - a tribute to Depeche Mode\03 - Seize - Shake The Disease [d!rty house b1tch mix].wav
     Pre-gap length  0:00:02.00
     Peak level 98.8 %
     Track quality 100.0 %
     Test CRC 787E6E9A
     Copy CRC 787E6E9A
     Track not present in AccurateRip database
     Copy OK
Track  4
     Filename D:\Downloads\LOSSLESS\Alfa Matrix - re covered - a tribute to Depeche Mode\AM2127EPCD - a tribute to Depeche Mode\04 - Krystal System - Master And Servant [Discomix].wav
     Pre-gap length  0:00:02.00
     Peak level 98.7 %
     Track quality 100.0 %
     Test CRC 418AADFC
     Copy CRC 418AADFC
     Track not present in AccurateRip database
     Copy OK
Track  5
     Filename D:\Downloads\LOSSLESS\Alfa Matrix - re covered - a tribute to Depeche Mode\AM2127EPCD - a tribute to Depeche Mode\05 -  Helalyn Flowers - I Feel You.wav
     Pre-gap length  0:00:02.00
     Peak level 98.8 %
     Track quality 100.0 %
     Test CRC 1B24F5A6
     Copy CRC 1B24F5A6
     Track not present in AccurateRip database
     Copy OK
Track  6
     Filename D:\Downloads\LOSSLESS\Alfa Matrix - re covered - a tribute to Depeche Mode\AM2127EPCD - a tribute to Depeche Mode\06 -  I-Scintilla - I Want It All [Essence Of Mind Remix].wav
     Pre-gap length  0:00:02.00
     Peak level 98.7 %
     Track quality 100.0 %
     Test CRC 971D42F7
     Copy CRC 971D42F7
     Track not present in AccurateRip database
     Copy OK
Track  7
     Filename D:\Downloads\LOSSLESS\Alfa Matrix - re covered - a tribute to Depeche Mode\AM2127EPCD - a tribute to Depeche Mode\07 - Psy'aviah - Stripped.wav
     Pre-gap length  0:00:02.00
     Peak level 98.8 %
     Track quality 100.0 %
     Test CRC 7AC7575D
     Copy CRC 7AC7575D
     Track not present in AccurateRip database
     Copy OK
None of the tracks are present in the AccurateRip database
No errors occurred
End of status report
Релиз с what.cd (frontmanmax)
Правила, инструкции, FAQ!!!
Торрент  Добавлен [26 июн 2020, 21:11] Скачать торрент Магнет ссылка
Скачать торрент
[ Размер 20.65 КБ / Просмотров 7 ]

Статус
Проверен 
 
Размер  245.67 МБ
Приватный: Нет (DHT включён)
.torrent скачан  0
 


     Отправить личное сообщение
   
Страница 1 из 1
Показать сообщения за:  Поле сортировки  
Начать новую тему Ответить на тему


Сейчас этот форум просматривают: нет зарегистрированных пользователей и гости: 0


Вы не можете начинать темы
Вы не можете отвечать на сообщения
Вы не можете редактировать свои сообщения
Вы не можете удалять свои сообщения
Вы не можете добавлять вложения

Перейти:  
cron