Начать новую тему Ответить на тему
Статистика раздачи
Размер: 448.08 МБ | Добавлен: 26 июн 2020, 17:33 | Скачали: 0
Сидеров: 0  [0 байт/сек]    Личеров: 0  [0 байт/сек]
Пред. тема | След. тема 

Автор
Сообщение

СообщениеДобавлено: 26 июн 2020, 17:33 

Ответить с цитатой 

Various Artists - Metro Tekno

Жанр: EBM, Techno, Electro, Industrial
Страна-производитель диска: US
Год издания диска: 1992
Издатель (лейбл): Silent
Номер по каталогу: SR9216
Страна: US
Аудиокодек: FLAC (*.flac)
Тип рипа: tracks+.cue
Битрейт аудио: lossless
Продолжительность: 01:18:20
Источник (релизер): what.cd
Наличие сканов в содержимом раздачи: нет
01 Digital Poodle – Work Terminal (US Mix) [6:12]
02 Digital Poodle – Free Men (Extended) [6:37]
03 Din – Stab (Scissor Mix) [5:31]
04 Din – Blutung (Redone) [7:15]
05 Mona Lisa Mescaline – Provocation [4:58]
06 Mona Lisa Mescaline – Kinoptics [4:14]
07 Parade – Flower Child (Hyper Dance Mix) [9:35]
08 Parade – Call To Arms (392 Mix) [3:38]
09 Attack Squad – Beat Of Battle [4:04]
10 Attack Squad – Ich Din [3:52]
11 !Bang Elektronika – Aktivierung [5:48]
12 !Bang Elektronika – Ich Bin So Atzend! [5:49]
13 Command Co. – Command [6:01]
14 Command Co. – Rage + Desire [4:40]
Код:
X Lossless Decoder version 20110528 (134.0)
XLD extraction logfile from 2011-06-03 17:00:07 -0700
Various Artists / Metro Tekno
Used drive : MATSHITA DVD-R   UJ-868 (revision KB19)
Ripper mode             : XLD Secure Ripper
Disable audio cache     : OK for the drive with a cache less than 1375KiB
Make use of C2 pointers : NO
Read offset correction  : 102
Max retry count         : 100
Gap status              : Analyzed, Appended
TOC of the extracted CD
     Track |   Start  |  Length  | Start sector | End sector
    ---------------------------------------------------------
        1  | 00:00:33 | 06:12:05 |        33    |    27937
        2  | 06:12:38 | 06:37:70 |     27938    |    57782
        3  | 12:50:33 | 05:31:72 |     57783    |    82679
        4  | 18:22:30 | 07:15:25 |     82680    |   115329
        5  | 25:37:55 | 04:58:50 |    115330    |   137729
        6  | 30:36:30 | 04:14:10 |    137730    |   156789
        7  | 34:50:40 | 09:35:35 |    156790    |   199949
        8  | 44:26:00 | 03:38:30 |    199950    |   216329
        9  | 48:04:30 | 04:04:08 |    216330    |   234637
       10  | 52:08:38 | 03:52:67 |    234638    |   252104
       11  | 56:01:30 | 05:48:10 |    252105    |   278214
       12  | 61:49:40 | 05:49:33 |    278215    |   304422
       13  | 67:38:73 | 06:01:27 |    304423    |   331524
       14  | 73:40:25 | 04:40:10 |    331525    |   352534
AccurateRip Summary
    Track 01 : OK (confidence 2)
    Track 02 : OK (confidence 2)
    Track 03 : Not Found
    Track 04 : OK (confidence 2)
    Track 05 : OK (confidence 2)
    Track 06 : OK (confidence 2)
    Track 07 : OK (confidence 2)
    Track 08 : OK (confidence 2)
    Track 09 : OK (confidence 2)
    Track 10 : OK (confidence 2)
    Track 11 : OK (confidence 2)
    Track 12 : OK (confidence 2)
    Track 13 : OK (confidence 2)
    Track 14 : OK (confidence 2)
        ->13 track(s) accurately ripped, 0 track(s) not, 1 track(s) not found
All Tracks
    Album gain             : -1.40 dB
    Peak                   : 0.988556
    Statistics
        Read error                           : 0
        Jitter error (maybe fixed)           : 0
        Retry sector count                   : 0
        Damaged sector count                 : 0
Track 01
    Filename : /Users/bensterola/Documents/Torrents/Rips/Compilations - Metro Tekno 1992 [FLAC]/01 Work Terminal (U.S. Mix).flac
    Pre-gap length : 00:02:33
    Track gain             : -0.59 dB
    Peak                   : 0.968414
    CRC32 hash (test run)  : 52006B7E
    CRC32 hash             : 52006B7E
    CRC32 hash (skip zero) : 58C1B3A8
    AccurateRip signature  : CBA49695
        ->Accurately ripped! (confidence 2)
    Statistics
        Read error                           : 0
        Jitter error (maybe fixed)           : 0
        Retry sector count                   : 0
        Damaged sector count                 : 0
Track 02
    Filename : /Users/bensterola/Documents/Torrents/Rips/Compilations - Metro Tekno 1992 [FLAC]/02 Free Men (Extended).flac
    Pre-gap length : 00:03:68
    Track gain             : -1.74 dB
    Peak                   : 0.876678
    CRC32 hash (test run)  : 3AC0450E
    CRC32 hash             : 3AC0450E
    CRC32 hash (skip zero) : 1E367FC0
    AccurateRip signature  : B9DBA051
        ->Accurately ripped! (confidence 2)
    Statistics
        Read error                           : 0
        Jitter error (maybe fixed)           : 0
        Retry sector count                   : 0
        Damaged sector count                 : 0
Track 03
    Filename : /Users/bensterola/Documents/Torrents/Rips/Compilations - Metro Tekno 1992 [FLAC]/03 Stab (Scissor Mix).flac
    Pre-gap length : 00:03:63
    Track gain             : 0.37 dB
    Peak                   : 0.905914
    CRC32 hash (test run)  : 735CFA31
    CRC32 hash             : 735CFA31
    CRC32 hash (skip zero) : 24B4CF32
    AccurateRip signature  : 34A12870
        ->Track not present in AccurateRip database.
    Statistics
        Read error                           : 0
        Jitter error (maybe fixed)           : 0
        Retry sector count                   : 0
        Damaged sector count                 : 0
Track 04
    Filename : /Users/bensterola/Documents/Torrents/Rips/Compilations - Metro Tekno 1992 [FLAC]/04 Blutung (Redone).flac
    Pre-gap length : 00:03:52
    Track gain             : -3.62 dB
    Peak                   : 0.969696
    CRC32 hash (test run)  : 6D20C643
    CRC32 hash             : 6D20C643
    CRC32 hash (skip zero) : C9C42F4C
    AccurateRip signature  : E0EAA952
        ->Accurately ripped! (confidence 2)
    Statistics
        Read error                           : 0
        Jitter error (maybe fixed)           : 0
        Retry sector count                   : 0
        Damaged sector count                 : 0
Track 05
    Filename : /Users/bensterola/Documents/Torrents/Rips/Compilations - Metro Tekno 1992 [FLAC]/05 Provocation.flac
    Pre-gap length : 00:01:42
    Track gain             : -2.41 dB
    Peak                   : 0.988556
    CRC32 hash (test run)  : 8E309C4C
    CRC32 hash             : 8E309C4C
    CRC32 hash (skip zero) : 2ADB0143
    AccurateRip signature  : 280DC52F
        ->Accurately ripped! (confidence 2)
    Statistics
        Read error                           : 0
        Jitter error (maybe fixed)           : 0
        Retry sector count                   : 0
        Damaged sector count                 : 0
Track 06
    Filename : /Users/bensterola/Documents/Torrents/Rips/Compilations - Metro Tekno 1992 [FLAC]/06 Kinoptics.flac
    Pre-gap length : 00:02:72
    Track gain             : -2.94 dB
    Peak                   : 0.988556
    CRC32 hash (test run)  : 3E495492
    CRC32 hash             : 3E495492
    CRC32 hash (skip zero) : 93916C9A
    AccurateRip signature  : 4EC50C6D
        ->Accurately ripped! (confidence 2)
    Statistics
        Read error                           : 0
        Jitter error (maybe fixed)           : 0
        Retry sector count                   : 0
        Damaged sector count                 : 0
Track 07
    Filename : /Users/bensterola/Documents/Torrents/Rips/Compilations - Metro Tekno 1992 [FLAC]/07 Flower Child (Hyper Dance Mix).flac
    Pre-gap length : 00:04:40
    Track gain             : -2.24 dB
    Peak                   : 0.988525
    CRC32 hash (test run)  : 7A706B63
    CRC32 hash             : 7A706B63
    CRC32 hash (skip zero) : 46CF7E89
    AccurateRip signature  : F73BA0B0
        ->Accurately ripped! (confidence 2)
    Statistics
        Read error                           : 0
        Jitter error (maybe fixed)           : 0
        Retry sector count                   : 0
        Damaged sector count                 : 0
Track 08
    Filename : /Users/bensterola/Documents/Torrents/Rips/Compilations - Metro Tekno 1992 [FLAC]/08 Call to Arms (392 Mix).flac
    Pre-gap length : 00:04:37
    Track gain             : 1.92 dB
    Peak                   : 0.848785
    CRC32 hash (test run)  : 7D749C14
    CRC32 hash             : 7D749C14
    CRC32 hash (skip zero) : 3D71501B
    AccurateRip signature  : 6D7B9CE4
        ->Accurately ripped! (confidence 2)
    Statistics
        Read error                           : 0
        Jitter error (maybe fixed)           : 0
        Retry sector count                   : 0
        Damaged sector count                 : 0
Track 09
    Filename : /Users/bensterola/Documents/Torrents/Rips/Compilations - Metro Tekno 1992 [FLAC]/09 Beat of Battle.flac
    Pre-gap length : 00:03:65
    Track gain             : 0.96 dB
    Peak                   : 0.812408
    CRC32 hash (test run)  : 9BE216C3
    CRC32 hash             : 9BE216C3
    CRC32 hash (skip zero) : F5DF6DDD
    AccurateRip signature  : EA6B28FB
        ->Accurately ripped! (confidence 2)
    Statistics
        Read error                           : 0
        Jitter error (maybe fixed)           : 0
        Retry sector count                   : 0
        Damaged sector count                 : 0
Track 10
    Filename : /Users/bensterola/Documents/Torrents/Rips/Compilations - Metro Tekno 1992 [FLAC]/10 Ich Din.flac
    Pre-gap length : 00:03:40
    Track gain             : 1.28 dB
    Peak                   : 0.795624
    CRC32 hash (test run)  : 77BC7BCA
    CRC32 hash             : 77BC7BCA
    CRC32 hash (skip zero) : 708D6923
    AccurateRip signature  : 9E51B603
        ->Accurately ripped! (confidence 2)
    Statistics
        Read error                           : 0
        Jitter error (maybe fixed)           : 0
        Retry sector count                   : 0
        Damaged sector count                 : 0
Track 11
    Filename : /Users/bensterola/Documents/Torrents/Rips/Compilations - Metro Tekno 1992 [FLAC]/11 Aktivierung.flac
    Pre-gap length : 00:03:55
    Track gain             : -3.08 dB
    Peak                   : 0.966064
    CRC32 hash (test run)  : AA4274D8
    CRC32 hash             : AA4274D8
    CRC32 hash (skip zero) : AB51773E
    AccurateRip signature  : F5661110
        ->Accurately ripped! (confidence 2)
    Statistics
        Read error                           : 0
        Jitter error (maybe fixed)           : 0
        Retry sector count                   : 0
        Damaged sector count                 : 0
Track 12
    Filename : /Users/bensterola/Documents/Torrents/Rips/Compilations - Metro Tekno 1992 [FLAC]/12 Ich Din So Ätzend!.flac
    Pre-gap length : 00:02:55
    Track gain             : -0.09 dB
    Peak                   : 0.966034
    CRC32 hash (test run)  : DE65A7E2
    CRC32 hash             : DE65A7E2
    CRC32 hash (skip zero) : 28B424BC
    AccurateRip signature  : 5A2ADAC3
        ->Accurately ripped! (confidence 2)
    Statistics
        Read error                           : 0
        Jitter error (maybe fixed)           : 0
        Retry sector count                   : 0
        Damaged sector count                 : 0
Track 13
    Filename : /Users/bensterola/Documents/Torrents/Rips/Compilations - Metro Tekno 1992 [FLAC]/13 Command.flac
    Pre-gap length : 00:03:18
    Track gain             : 0.17 dB
    Peak                   : 0.955200
    CRC32 hash (test run)  : 9B757858
    CRC32 hash             : 9B757858
    CRC32 hash (skip zero) : 3DC9906D
    AccurateRip signature  : 57390E65
        ->Accurately ripped! (confidence 2)
    Statistics
        Read error                           : 0
        Jitter error (maybe fixed)           : 0
        Retry sector count                   : 0
        Damaged sector count                 : 0
Track 14
    Filename : /Users/bensterola/Documents/Torrents/Rips/Compilations - Metro Tekno 1992 [FLAC]/14 Rage + Desire.flac
    Pre-gap length : 00:02:15
    Track gain             : 3.64 dB
    Peak                   : 0.927582
    CRC32 hash (test run)  : 54CDDB59
    CRC32 hash             : 54CDDB59
    CRC32 hash (skip zero) : 38430385
    AccurateRip signature  : 64E19943
        ->Accurately ripped! (confidence 2)
    Statistics
        Read error                           : 0
        Jitter error (maybe fixed)           : 0
        Retry sector count                   : 0
        Damaged sector count                 : 0
No errors occurred
End of status report
Код:
TITLE "Metro Tekno"
REM DATE "1992"
REM DISCNUMBER 1
REM TOTALDISCS 1
REM DISCID BF125C0E
REM REPLAYGAIN_ALBUM_GAIN -1.40 dB
REM REPLAYGAIN_ALBUM_PEAK 0.988556
FILE "01 Work Terminal (U.S. Mix).flac" WAVE
  TRACK 01 AUDIO
    TITLE "Work Terminal (U.S. Mix)"
    PERFORMER "Digital Poodle"
    REM REPLAYGAIN_TRACK_GAIN -0.59 dB
    REM REPLAYGAIN_TRACK_PEAK 0.968414
    INDEX 00 00:00:00
    INDEX 01 00:00:33
  TRACK 02 AUDIO
    TITLE "Free Men (Extended)"
    PERFORMER "Digital Poodle"
    REM REPLAYGAIN_TRACK_GAIN -1.74 dB
    REM REPLAYGAIN_TRACK_PEAK 0.876678
    INDEX 00 06:08:45
FILE "02 Free Men (Extended).flac" WAVE
    INDEX 01 00:00:00
  TRACK 03 AUDIO
    TITLE "Stab (Scissor Mix)"
    PERFORMER "Din"
    REM REPLAYGAIN_TRACK_GAIN 0.37 dB
    REM REPLAYGAIN_TRACK_PEAK 0.905914
    INDEX 00 06:34:07
FILE "03 Stab (Scissor Mix).flac" WAVE
    INDEX 01 00:00:00
  TRACK 04 AUDIO
    TITLE "Blutung (Redone)"
    PERFORMER "Din"
    REM REPLAYGAIN_TRACK_GAIN -3.62 dB
    REM REPLAYGAIN_TRACK_PEAK 0.969696
    INDEX 00 05:28:20
FILE "04 Blutung (Redone).flac" WAVE
    INDEX 01 00:00:00
  TRACK 05 AUDIO
    TITLE "Provocation"
    PERFORMER "Mona Lisa Mescaline"
    REM REPLAYGAIN_TRACK_GAIN -2.41 dB
    REM REPLAYGAIN_TRACK_PEAK 0.988556
    INDEX 00 07:13:58
FILE "05 Provocation.flac" WAVE
    INDEX 01 00:00:00
  TRACK 06 AUDIO
    TITLE "Kinoptics"
    PERFORMER "Mona Lisa Mescaline"
    REM REPLAYGAIN_TRACK_GAIN -2.94 dB
    REM REPLAYGAIN_TRACK_PEAK 0.988556
    INDEX 00 04:55:53
FILE "06 Kinoptics.flac" WAVE
    INDEX 01 00:00:00
  TRACK 07 AUDIO
    TITLE "Flower Child (Hyper Dance Mix)"
    PERFORMER "The Parade"
    REM REPLAYGAIN_TRACK_GAIN -2.24 dB
    REM REPLAYGAIN_TRACK_PEAK 0.988525
    INDEX 00 04:09:45
FILE "07 Flower Child (Hyper Dance Mix).flac" WAVE
    INDEX 01 00:00:00
  TRACK 08 AUDIO
    TITLE "Call to Arms (392 Mix)"
    PERFORMER "The Parade"
    REM REPLAYGAIN_TRACK_GAIN 1.92 dB
    REM REPLAYGAIN_TRACK_PEAK 0.848785
    INDEX 00 09:30:73
FILE "08 Call to Arms (392 Mix).flac" WAVE
    INDEX 01 00:00:00
  TRACK 09 AUDIO
    TITLE "Beat of Battle"
    PERFORMER "Attack Squad"
    REM REPLAYGAIN_TRACK_GAIN 0.96 dB
    REM REPLAYGAIN_TRACK_PEAK 0.812408
    INDEX 00 03:34:40
FILE "09 Beat of Battle.flac" WAVE
    INDEX 01 00:00:00
  TRACK 10 AUDIO
    TITLE "Ich Din"
    PERFORMER "Attack Squad"
    REM REPLAYGAIN_TRACK_GAIN 1.28 dB
    REM REPLAYGAIN_TRACK_PEAK 0.795624
    INDEX 00 04:00:43
FILE "10 Ich Din.flac" WAVE
    INDEX 01 00:00:00
  TRACK 11 AUDIO
    TITLE "Aktivierung"
    PERFORMER "!Bang Elektronika"
    REM REPLAYGAIN_TRACK_GAIN -3.08 dB
    REM REPLAYGAIN_TRACK_PEAK 0.966064
    INDEX 00 03:49:12
FILE "11 Aktivierung.flac" WAVE
    INDEX 01 00:00:00
  TRACK 12 AUDIO
    TITLE "Ich Din So Atzend!"
    PERFORMER "!Bang Elektronika"
    REM REPLAYGAIN_TRACK_GAIN -0.09 dB
    REM REPLAYGAIN_TRACK_PEAK 0.966034
    INDEX 00 05:45:30
FILE "12 Ich Din So Atzend!.flac" WAVE
    INDEX 01 00:00:00
  TRACK 13 AUDIO
    TITLE "Command"
    PERFORMER "Command Co."
    REM REPLAYGAIN_TRACK_GAIN 0.17 dB
    REM REPLAYGAIN_TRACK_PEAK 0.955200
    INDEX 00 05:46:15
FILE "13 Command.flac" WAVE
    INDEX 01 00:00:00
  TRACK 14 AUDIO
    TITLE "Rage + Desire"
    PERFORMER "Command Co."
    REM REPLAYGAIN_TRACK_GAIN 3.64 dB
    REM REPLAYGAIN_TRACK_PEAK 0.927582
    INDEX 00 05:59:12
FILE "14 Rage + Desire.flac" WAVE
    INDEX 01 00:00:00
Код:
AUDIOCHECKER v2.0 beta (build 457) - by Dester - opdester@freemail.hu
~~~~~~~~~~~~~~~~~~~~~~~~~~~~~~~~~~
-=== DO NOT EDIT THIS FILE! ===-
Path: ...\Compilations - Metro Tekno 1992 [FLAC]
01 -=- 01 Work Terminal (U.S. Mix).flac -=- CDDA (100%)
02 -=- 02 Free Men (Extended).flac -=- CDDA (100%)
03 -=- 03 Stab (Scissor Mix).flac -=- CDDA (100%)
04 -=- 04 Blutung (Redone).flac -=- CDDA (100%)
05 -=- 05 Provocation.flac -=- CDDA (100%)
06 -=- 06 Kinoptics.flac -=- CDDA (100%)
07 -=- 07 Flower Child (Hyper Dance Mix).flac -=- CDDA (100%)
08 -=- 08 Call to Arms (392 Mix).flac -=- CDDA (100%)
09 -=- 09 Beat of Battle.flac -=- CDDA (100%)
10 -=- 10 Ich Din.flac -=- CDDA (100%)
11 -=- 11 Aktivierung.flac -=- CDDA (100%)
12 -=- 12 Ich Din So A?tzend!.flac -=- ERROR
13 -=- 13 Command.flac -=- CDDA (100%)
14 -=- 14 Rage + Desire.flac -=- CDDA (100%)
Summary 100,00% CDDA
181693748
Правила, инструкции, FAQ!!!
Торрент  Добавлен [26 июн 2020, 17:33] Скачать торрент Магнет ссылка
Скачать торрент
[ Размер 18.83 КБ / Просмотров 9 ]

Статус
Проверен 
 
Размер  448.08 МБ
Приватный: Нет (DHT включён)
.torrent скачан  0
 


     Отправить личное сообщение
   
Страница 1 из 1
Показать сообщения за:  Поле сортировки  
Начать новую тему Ответить на тему


Сейчас этот форум просматривают: нет зарегистрированных пользователей и гости: 0


Вы не можете начинать темы
Вы не можете отвечать на сообщения
Вы не можете редактировать свои сообщения
Вы не можете удалять свои сообщения
Вы не можете добавлять вложения

Перейти:  
cron