Начать новую тему Ответить на тему
Статистика раздачи
Размер: 384.95 МБ | Добавлен: 26 июн 2020, 16:53 | Скачали: 0
Сидеров: 0  [0 байт/сек]    Личеров: 0  [0 байт/сек]
Пред. тема | След. тема 

Автор
Сообщение

СообщениеДобавлено: 26 июн 2020, 16:53 

Ответить с цитатой 

In Progress / Untitled 01
Жанр: EBM, Techno, Big Beat
Страна-производитель диска: Germany
Год издания диска: 1998
Издатель (лейбл): Soundcarrier
Номер по каталогу: SC06
Формат: CD, Album
Аудиокодек: FLAC (*.flac)
Тип рипа: image+.cue
Битрейт аудио: lossless
Продолжительность: 0:53:46.50
Источник (релизер): Физический носитель (Собственный рип с оригинального CD).
Наличие сканов в содержимом раздачи: да
Треклист:
01. Intro [0:55]
02. Dusty Pleasure [5:27]
03. Push That Button [4:56]
04. Untitled 01 [4:35]
05. Brainwashed [3:59]
06. Influence '98 [6:56]
07. Egocentric [3:51]
08. Lost + Found [4:13]
09. Submarine Soul [5:01]
10. Hard Times [4:46]
11. The Unknown [3:50]
12. Slowly Rotations [5:18]
Код:
Exact Audio Copy V1.0 beta 3 from 29. August 2011
EAC extraction logfile from 23. February 2012, 20:56
In Progress / Untitled 01
Used drive  : PLEXTOR BDDVDR PX-B320SA   Adapter: 0  ID: 2
Read mode               : Secure
Utilize accurate stream : Yes
Defeat audio cache      : Yes
Make use of C2 pointers : No
Read offset correction                      : 6
Overread into Lead-In and Lead-Out          : No
Fill up missing offset samples with silence : Yes
Delete leading and trailing silent blocks   : No
Null samples used in CRC calculations       : Yes
Used interface                              : Native Win32 interface for Win NT & 2000
Used output format              : User Defined Encoder
Selected bitrate                : 128 kBit/s
Quality                         : High
Add ID3 tag                     : No
Command line compressor         : C:\Program Files (x86)\FLAC\flac.exe
Additional command line options : -V -8 -T "Date=%year%" -T "Genre=%genre%" %source%
TOC of the extracted CD
     Track |   Start  |  Length  | Start sector | End sector
    ---------------------------------------------------------
        1  |  0:00.00 |  0:54.65 |         0    |     4114
        2  |  0:54.65 |  5:27.05 |      4115    |    28644
        3  |  6:21.70 |  4:56.36 |     28645    |    50880
        4  | 11:18.31 |  4:35.28 |     50881    |    71533
        5  | 15:53.59 |  3:58.53 |     71534    |    89436
        6  | 19:52.37 |  6:55.61 |     89437    |   120622
        7  | 26:48.23 |  3:50.39 |    120623    |   137911
        8  | 30:38.62 |  4:12.39 |    137912    |   156850
        9  | 34:51.26 |  5:01.29 |    156851    |   179454
       10  | 39:52.55 |  4:46.07 |    179455    |   200911
       11  | 44:38.62 |  3:50.19 |    200912    |   218180
       12  | 48:29.06 |  5:17.44 |    218181    |   241999
Range status and errors
Selected range
     Filename D:\In Progress - Untitled 01 (1998)\In Progress - Untitled 01.wav
     Peak level 94.4 %
     Extraction speed 7.4 X
     Range quality 100.0 %
     Test CRC 2F35C740
     Copy CRC 2F35C740
     Copy OK
No errors occurred
AccurateRip summary
Track  1  not present in database
Track  2  not present in database
Track  3  not present in database
Track  4  not present in database
Track  5  not present in database
Track  6  not present in database
Track  7  not present in database
Track  8  not present in database
Track  9  not present in database
Track 10  not present in database
Track 11  not present in database
Track 12  not present in database
None of the tracks are present in the AccurateRip database
End of status report
==== Log checksum D615A85B38B4D0E281C24D6ED2C7229D4430212DBA478DAC8A307C761DC64278 ====
Правила, инструкции, FAQ!!!
Торрент  Добавлен [26 июн 2020, 16:53] Скачать торрент Магнет ссылка
Скачать торрент
[ Размер 15.95 КБ / Просмотров 4 ]

Статус
Проверен 
 
Размер  384.95 МБ
Приватный: Нет (DHT включён)
.torrent скачан  0
 


     Отправить личное сообщение
   
Страница 1 из 1
Показать сообщения за:  Поле сортировки  
Начать новую тему Ответить на тему


Сейчас этот форум просматривают: нет зарегистрированных пользователей и гости: 0


Вы не можете начинать темы
Вы не можете отвечать на сообщения
Вы не можете редактировать свои сообщения
Вы не можете удалять свои сообщения
Вы не можете добавлять вложения

Перейти:  
cron