Начать новую тему Ответить на тему
Статистика раздачи
Размер: 570.46 МБ | Добавлен: 26 июн 2020, 16:51 | Скачали: 0
Сидеров: 0  [0 байт/сек]    Личеров: 0  [0 байт/сек]
Пред. тема | След. тема 

Автор
Сообщение

СообщениеДобавлено: 26 июн 2020, 16:51 

Ответить с цитатой 

TrümmerWelten (TrummerWelten) - PsychoTötungsEquipment
Жанр: EBM / TBM / Industrial
Год выпуска диска: 2008
Производитель диска: Germany
Аудио кодек: APE
Тип рипа: image+.cue
Битрейт аудио: lossless
Продолжительность: 78:46
Трэклист:
1 Intro - Dein Bild (4:51)
2 DeadEnd Row (6:31)
3 Fuck My Pain (5:51)
4 Wir Sind Verrückt (5:26)
5 Covering Behind This Mask (5:50)
6 Aesthet (4:32)
7 Desperate Now (6:52)
8 BückStück (5:15)
9 How Could I? (6:27)
10 Light Of Knowledge (4:59)
11 SeelenKrank (5:38)
12 Spit On My Face (5:58)
13 Sudden Infant Death Syndrome (5:10)
14 The Painful Fact (5:27)
Доп. информация: Fear Section; Fear 032
Код:
Exact Audio Copy V0.99 prebeta 4 from 23. January 2008
EAC extraction logfile from 29. April 2009, 18:32
Trummerwelten / PsychoTotungsEquipment
Used drive  : PLEXTOR CD-R   PX-W4824A   Adapter: 1  ID: 1
Read mode               : Secure
Utilize accurate stream : Yes
Defeat audio cache      : Yes
Make use of C2 pointers : No
Read offset correction                      : 98
Overread into Lead-In and Lead-Out          : No
Fill up missing offset samples with silence : Yes
Delete leading and trailing silent blocks   : No
Null samples used in CRC calculations       : Yes
Used interface                              : Installed external ASPI interface
Used output format : Internal WAV Routines
Sample format      : 44.100 Hz; 16 Bit; Stereo
TOC of the extracted CD
     Track |   Start  |  Length  | Start sector | End sector
    ---------------------------------------------------------
        1  |  0:00.00 |  4:50.45 |         0    |    21794
        2  |  4:50.45 |  6:31.29 |     21795    |    51148
        3  | 11:21.74 |  5:51.06 |     51149    |    77479
        4  | 17:13.05 |  5:25.66 |     77480    |   101920
        5  | 22:38.71 |  5:49.40 |    101921    |   128135
        6  | 28:28.36 |  4:32.20 |    128136    |   148555
        7  | 33:00.56 |  6:51.69 |    148556    |   179449
        8  | 39:52.50 |  5:14.39 |    179450    |   203038
        9  | 45:07.14 |  6:27.33 |    203039    |   232096
       10  | 51:34.47 |  4:59.05 |    232097    |   254526
       11  | 56:33.52 |  5:38.19 |    254527    |   279895
       12  | 62:11.71 |  5:58.20 |    279896    |   306765
       13  | 68:10.16 |  5:09.42 |    306766    |   329982
       14  | 73:19.58 |  5:26.56 |    329983    |   354488
Range status and errors
Selected range
   Filename K:\Trummerwelten - PsychoTotungsEquipment\CDImage.wav
   Peak level 97.9 %
   Range quality 100.0 %
   Test CRC 2189CC27
   Copy CRC 2189CC27
   Copy OK
No errors occurred
AccurateRip summary
Track  1  not present in database
Track  2  not present in database
Track  3  not present in database
Track  4  not present in database
Track  5  not present in database
Track  6  not present in database
Track  7  not present in database
Track  8  not present in database
Track  9  not present in database
Track 10  not present in database
Track 11  not present in database
Track 12  not present in database
Track 13  not present in database
Track 14  not present in database
None of the tracks are present in the AccurateRip database
End of status report
Код:
AUDIOCHECKER v2.0 beta (build 457) - by Dester - opdester@freemail.hu
~~~~~~~~~~~~~~~~~~~~~~~~~~~~~~~~~~
-=== DO NOT EDIT THIS FILE! ===-
Path: ...\Trummerwelten - PsychoTotungsEquipment
01 -=- CDImage.wav -=- CDDA (100%)
190127764
Cканы в комплекте.
Не забываем про спасибы
Правила, инструкции, FAQ!!!
Торрент  Добавлен [26 июн 2020, 16:51] Скачать торрент Магнет ссылка
Скачать торрент
[ Размер 12.02 КБ / Просмотров 4 ]

Статус
Проверен 
 
Размер  570.46 МБ
Приватный: Нет (DHT включён)
.torrent скачан  0
 


     Отправить личное сообщение
   
Страница 1 из 1
Показать сообщения за:  Поле сортировки  
Начать новую тему Ответить на тему


Сейчас этот форум просматривают: нет зарегистрированных пользователей и гости: 0


Вы не можете начинать темы
Вы не можете отвечать на сообщения
Вы не можете редактировать свои сообщения
Вы не можете удалять свои сообщения
Вы не можете добавлять вложения

Перейти:  
cron