Начать новую тему Ответить на тему
Статистика раздачи
Размер: 432.25 МБ | Добавлен: 26 июн 2020, 16:51 | Скачали: 0
Сидеров: 0  [0 байт/сек]    Личеров: 0  [0 байт/сек]
Пред. тема | След. тема 

Автор
Сообщение

СообщениеДобавлено: 26 июн 2020, 16:51 

Ответить с цитатой 

[T.3.R] / T3R / История Безумия
Жанр: EBM
Страна-производитель диска: Russia
Год издания диска: 2006
Издатель (лейбл): Gravitator Records
Номер по каталогу: GRR 015
Страна: Russia
Аудио кодек: FLAC (*.flac)
Тип рипа: tracks+.cue
Битрейт аудио: lossless
Продолжительность: 57:27
Источник (релизер): собственный диск
Наличие сканов в содержимом раздачи: нет
Треклист:
1 Рождение Танка 7:05
2 Грезы 5, 6, 7 4:51
3 Другой Восток 5:07
4 Безумие 6:57
5 Моя Фрау 4:25
6 Пепел Ран 7:18
7 Последний Рассвет 4:28
8 Оттенок Цвета - Ад 5:00
9 История 6:00
10 Моя Фрау (Single Version) 6:11
Код:
Exact Audio Copy V0.99 prebeta 5 from 4. May 2009
EAC extraction logfile from 18. January 2011, 16:38
[T.3.R] / История Безумия
Used drive  : PIONEER DVD-RW  DVR-218L   Adapter: 0  ID: 0
Read mode               : Secure
Utilize accurate stream : Yes
Defeat audio cache      : Yes
Make use of C2 pointers : No
Read offset correction                      : 6
Overread into Lead-In and Lead-Out          : No
Fill up missing offset samples with silence : Yes
Delete leading and trailing silent blocks   : No
Null samples used in CRC calculations       : Yes
Used interface                              : Installed external ASPI interface
Gap handling                                : Appended to previous track
Used output format              : User Defined Encoder
Selected bitrate                : 320 kBit/s
Quality                         : High
Add ID3 tag                     : No
Command line compressor         : C:\Program Files\Exact Audio Copy\Flac\flac.exe
Additional command line options : -8 -V -T "ARTIST=%a" -T "TITLE=%t" -T "ALBUM=%g" -T "DATE=%y" -T "TRACKNUMBER=%n" -T "GENRE=%m" -T "COMMENT=EAC FLAC -8" %s
TOC of the extracted CD
     Track |   Start  |  Length  | Start sector | End sector
    ---------------------------------------------------------
        1  |  0:00.00 |  7:05.35 |         0    |    31909
        2  |  7:05.35 |  4:51.01 |     31910    |    53735
        3  | 11:56.36 |  5:07.74 |     53736    |    76834
        4  | 17:04.35 |  6:57.71 |     76835    |   108180
        5  | 24:02.31 |  4:25.72 |    108181    |   128127
        6  | 28:28.28 |  7:18.00 |    128128    |   160977
        7  | 35:46.28 |  4:28.08 |    160978    |   181085
        8  | 40:14.36 |  5:00.57 |    181086    |   203642
        9  | 45:15.18 |  6:00.41 |    203643    |   230683
       10  | 51:15.59 |  6:11.42 |    230684    |   258550
Track  1
     Filename C:\Music\ZZZ Soulseek\(2006) [T.3.R] - История Безумия (lossless)\01 Рождение Танка.wav
     Pre-gap length  0:00:02.00
     Peak level 100.0 %
     Track quality 100.0 %
     Test CRC F8CD1704
     Copy CRC F8CD1704
     Track not present in AccurateRip database
     Copy OK
Track  2
     Filename C:\Music\ZZZ Soulseek\(2006) [T.3.R] - История Безумия (lossless)\02 Грезы 5, 6, 7.wav
     Peak level 100.0 %
     Track quality 100.0 %
     Test CRC D40D62AC
     Copy CRC D40D62AC
     Track not present in AccurateRip database
     Copy OK
Track  3
     Filename C:\Music\ZZZ Soulseek\(2006) [T.3.R] - История Безумия (lossless)\03 Другой Восток.wav
     Peak level 100.0 %
     Track quality 100.0 %
     Test CRC C7E1DC85
     Copy CRC C7E1DC85
     Track not present in AccurateRip database
     Copy OK
Track  4
     Filename C:\Music\ZZZ Soulseek\(2006) [T.3.R] - История Безумия (lossless)\04 Безумие.wav
     Peak level 99.3 %
     Track quality 100.0 %
     Test CRC 693095B3
     Copy CRC 693095B3
     Track not present in AccurateRip database
     Copy OK
Track  5
     Filename C:\Music\ZZZ Soulseek\(2006) [T.3.R] - История Безумия (lossless)\05 Моя Фрау.wav
     Peak level 100.0 %
     Track quality 99.9 %
     Test CRC 5450EF61
     Copy CRC 5450EF61
     Track not present in AccurateRip database
     Copy OK
Track  6
     Filename C:\Music\ZZZ Soulseek\(2006) [T.3.R] - История Безумия (lossless)\06 Пепел Ран.wav
     Peak level 100.0 %
     Track quality 99.9 %
     Test CRC 4A4F5AB9
     Copy CRC 4A4F5AB9
     Track not present in AccurateRip database
     Copy OK
Track  7
     Filename C:\Music\ZZZ Soulseek\(2006) [T.3.R] - История Безумия (lossless)\07 Последний Рассвет.wav
     Peak level 100.0 %
     Track quality 100.0 %
     Test CRC 58079035
     Copy CRC 58079035
     Track not present in AccurateRip database
     Copy OK
Track  8
     Filename C:\Music\ZZZ Soulseek\(2006) [T.3.R] - История Безумия (lossless)\08 Оттенок Цвета - Ад.wav
     Peak level 100.0 %
     Track quality 100.0 %
     Test CRC 2DC9102F
     Copy CRC 2DC9102F
     Track not present in AccurateRip database
     Copy OK
Track  9
     Filename C:\Music\ZZZ Soulseek\(2006) [T.3.R] - История Безумия (lossless)\09 История.wav
     Peak level 100.0 %
     Track quality 100.0 %
     Test CRC 75AE344E
     Copy CRC 75AE344E
     Track not present in AccurateRip database
     Copy OK
Track 10
     Filename C:\Music\ZZZ Soulseek\(2006) [T.3.R] - История Безумия (lossless)\10 Моя Фрау (Single Version).wav
     Peak level 95.5 %
     Track quality 99.9 %
     Test CRC 25065383
     Copy CRC 25065383
     Track not present in AccurateRip database
     Copy OK
None of the tracks are present in the AccurateRip database
No errors occurred
End of status report
Код:
REM GENRE EBM
REM DATE 2006
REM DISCID 7C0D770A
REM COMMENT "ExactAudioCopy v0.99pb5"
PERFORMER "[T.3.R]"
TITLE "История Безумия"
FILE "01 Рождение Танка.wav" WAVE
  TRACK 01 AUDIO
    TITLE "Рождение Танка"
    PERFORMER "[T.3.R]"
    FLAGS DCP
    INDEX 01 00:00:00
FILE "02 Грезы 5, 6, 7.wav" WAVE
  TRACK 02 AUDIO
    TITLE "Грезы 5, 6, 7"
    PERFORMER "[T.3.R]"
    FLAGS DCP
    INDEX 01 00:00:00
FILE "03 Другой Восток.wav" WAVE
  TRACK 03 AUDIO
    TITLE "Другой Восток"
    PERFORMER "[T.3.R]"
    FLAGS DCP
    INDEX 01 00:00:00
FILE "04 Безумие.wav" WAVE
  TRACK 04 AUDIO
    TITLE "Безумие"
    PERFORMER "[T.3.R]"
    FLAGS DCP
    INDEX 01 00:00:00
FILE "05 Моя Фрау.wav" WAVE
  TRACK 05 AUDIO
    TITLE "Моя Фрау"
    PERFORMER "[T.3.R]"
    FLAGS DCP
    INDEX 01 00:00:00
FILE "06 Пепел Ран.wav" WAVE
  TRACK 06 AUDIO
    TITLE "Пепел Ран"
    PERFORMER "[T.3.R]"
    FLAGS DCP
    INDEX 01 00:00:00
FILE "07 Последний Рассвет.wav" WAVE
  TRACK 07 AUDIO
    TITLE "Последний Рассвет"
    PERFORMER "[T.3.R]"
    FLAGS DCP
    INDEX 01 00:00:00
FILE "08 Оттенок Цвета - Ад.wav" WAVE
  TRACK 08 AUDIO
    TITLE "Оттенок Цвета - Ад"
    PERFORMER "[T.3.R]"
    FLAGS DCP
    INDEX 01 00:00:00
FILE "09 История.wav" WAVE
  TRACK 09 AUDIO
    TITLE "История"
    PERFORMER "[T.3.R]"
    FLAGS DCP
    INDEX 01 00:00:00
FILE "10 Моя Фрау (Single Version).wav" WAVE
  TRACK 10 AUDIO
    TITLE "Моя Фрау (Single Version)"
    PERFORMER "[T.3.R]"
    FLAGS DCP
    INDEX 01 00:00:00
Правила, инструкции, FAQ!!!
Торрент  Добавлен [26 июн 2020, 16:51] Скачать торрент Магнет ссылка
Скачать торрент
[ Размер 18.19 КБ / Просмотров 5 ]

Статус
Проверен 
 
Размер  432.25 МБ
Приватный: Нет (DHT включён)
.torrent скачан  0
 


     Отправить личное сообщение
   
Страница 1 из 1
Показать сообщения за:  Поле сортировки  
Начать новую тему Ответить на тему


Сейчас этот форум просматривают: нет зарегистрированных пользователей и гости: 0


Вы не можете начинать темы
Вы не можете отвечать на сообщения
Вы не можете редактировать свои сообщения
Вы не можете удалять свои сообщения
Вы не можете добавлять вложения

Перейти:  
cron