Начать новую тему Ответить на тему
Статистика раздачи
Размер: 721.73 МБ | Добавлен: 26 июн 2020, 21:12 | Скачали: 0
Сидеров: 2  [0 байт/сек]    Личеров: 1  [0 байт/сек]
Пред. тема | След. тема 

Автор
Сообщение

СообщениеДобавлено: 26 июн 2020, 21:12 

Ответить с цитатой 

Xenturion Prime / Mecha Rising
Жанр: EBM, Synthpop
Носитель: CD
Год издания: 2014
Издатель (лейбл): Progress Production
Номер по каталогу: PROCD047L
Страна: Norway
Аудиокодек: FLAC (*.flac)
Тип рипа: tracks+.cue
Битрейт аудио: lossless
Продолжительность: 01:30:24
Источник (релизер): what.cd
Наличие сканов в содержимом раздачи: да
Треклист:
CD1
01. Mecha
02. Rise
03. Transmissions
04. Second Nature
05. Radiant
06. Vermilion
07. Voyagers
08. Realms
09. Ignition Power Up
10. Skyline
11. Elite
12. Beyond Infinity
CD2
01. Elite (Essence Of Mind RMX)
02. Makrowave
03. Radiant (SIDelicious RMX By HasseM)
04. Elite (Hell Sector Remix)
05. Vermilion (3x0 Cosmos RMX)
06. United
Код:
Exact Audio Copy V1.0 beta 3 from 29. August 2011
Отчёт EAC об извлечении, выполненном 9. июля 2014, 9:42
Xenturion Prime / Mecha Rising
Дисковод: PIONEER DVD-RW  DVR-XD10   Adapter: 1  ID: 0
Режим чтения                 : Достоверность
Использование точного потока : Да
Отключение кэша аудио        : Да
Использование указателей C2  : Нет
Коррекция смещения при чтении                     : 96
Способность читать области Lead-in и Lead-out     : Нет
Заполнение пропущенных сэмплов тишиной            : Да
Удаление блоков с тишиной в начале и конце        : Нет
При вычислениях CRC использовались нулевые сэмплы : Да
Интерфейс                                         : Встроенный Win32-интерфейс для Win NT/2000
Выходной формат          : Пользовательский кодировщик
Выбранный битрейт        : 1024 kBit/s
Качество                 : Высокий
Добавление ID3-тега      : Нет
Утилита сжатия           : C:\Program Files (x86)\Exact Audio Copy\FLAC\FLAC.EXE
Дополнительные параметры : -V -8 -T "Date=%year%" -T "Genre=%genre%" -T "Comment=ripped by termoflex" %source%
TOC извлечённого CD
     Трек |   Старт  | Длительность | Начальный сектор | Конечный сектор
    ---------------------------------------------------------------------
       1  |  0:00.00 |    3:41.07   |           0      |      16581
       2  |  3:41.07 |    4:01.22   |       16582      |      34678
       3  |  7:42.29 |    4:03.01   |       34679      |      52904
       4  | 11:45.30 |    6:06.45   |       52905      |      80399
       5  | 17:52.00 |    7:24.58   |       80400      |     113757
       6  | 25:16.58 |    4:23.21   |      113758      |     133503
       7  | 29:40.04 |    5:52.56   |      133504      |     159959
       8  | 35:32.60 |    4:29.13   |      159960      |     180147
       9  | 40:01.73 |    4:26.29   |      180148      |     200126
      10  | 44:28.27 |    7:16.23   |      200127      |     232849
      11  | 51:44.50 |    5:25.17   |      232850      |     257241
      12  | 57:09.67 |    3:01.06   |      257242      |     270822
Характеристики диапазона извлечения и сообщения об ошибках
Выбранный диапазон
     Имя файла C:\Users\HP\Music\Xenturion Prime - Mecha Rising.wav
     Пиковый уровень 100.0 %
     Скорость извлечения 4.3 X
     Качество диапазона 100.0 %
     CRC теста 94285906
     CRC копии 94285906
     Копирование... OK
Ошибок не произошло
AccurateRip: сводка
Трек  1  отсутствует в базе данных
Трек  2  отсутствует в базе данных
Трек  3  отсутствует в базе данных
Трек  4  отсутствует в базе данных
Трек  5  отсутствует в базе данных
Трек  6  отсутствует в базе данных
Трек  7  отсутствует в базе данных
Трек  8  отсутствует в базе данных
Трек  9  отсутствует в базе данных
Трек 10  отсутствует в базе данных
Трек 11  отсутствует в базе данных
Трек 12  отсутствует в базе данных
Ни одного трека нет в базе AccurateRip
Конец отчёта
---- CUETools DB Plugin V2.1.4
[CTDB TOCID: 0cNZnm6j_9lelQiOZGQxvoJQEn4-] found
Submit result: 0cNZnm6j_9lelQiOZGQxvoJQEn4- has been confirmed
Track | CTDB Status
  1   | (5/5) Accurately ripped
  2   | (5/5) Accurately ripped
  3   | (5/5) Accurately ripped
  4   | (5/5) Accurately ripped
  5   | (5/5) Accurately ripped
  6   | (5/5) Accurately ripped
  7   | (5/5) Accurately ripped
  8   | (5/5) Accurately ripped
  9   | (5/5) Accurately ripped
 10   | (5/5) Accurately ripped
 11   | (5/5) Accurately ripped
 12   | (5/5) Accurately ripped
==== Контрольная сумма отчёта 9C4F03093B802EFCDADA9E78059F1563E636B32A24BD2243EE7626A84E439550 ====
Код:
Exact Audio Copy V1.0 beta 3 from 29. August 2011
Отчёт EAC об извлечении, выполненном 9. июля 2014, 10:05
Xenturion Prime / Mecha Rising [Bonus]
Дисковод: PIONEER DVD-RW  DVR-XD10   Adapter: 1  ID: 0
Режим чтения                 : Достоверность
Использование точного потока : Да
Отключение кэша аудио        : Да
Использование указателей C2  : Нет
Коррекция смещения при чтении                     : 96
Способность читать области Lead-in и Lead-out     : Нет
Заполнение пропущенных сэмплов тишиной            : Да
Удаление блоков с тишиной в начале и конце        : Нет
При вычислениях CRC использовались нулевые сэмплы : Да
Интерфейс                                         : Встроенный Win32-интерфейс для Win NT/2000
Выходной формат          : Пользовательский кодировщик
Выбранный битрейт        : 1024 kBit/s
Качество                 : Высокий
Добавление ID3-тега      : Нет
Утилита сжатия           : C:\Program Files (x86)\Exact Audio Copy\FLAC\FLAC.EXE
Дополнительные параметры : -V -8 -T "Date=%year%" -T "Genre=%genre%" -T "Comment=ripped by termoflex" %source%
TOC извлечённого CD
     Трек |   Старт  | Длительность | Начальный сектор | Конечный сектор
    ---------------------------------------------------------------------
       1  |  0:00.00 |    5:18.27   |           0      |      23876
       2  |  5:18.27 |    4:40.57   |       23877      |      44933
       3  |  9:59.09 |    5:22.54   |       44934      |      69137
       4  | 15:21.63 |    4:36.68   |       69138      |      89905
       5  | 19:58.56 |    4:09.46   |       89906      |     108626
       6  | 24:08.27 |    6:12.48   |      108627      |     136574
Характеристики диапазона извлечения и сообщения об ошибках
Выбранный диапазон
     Имя файла C:\Users\HP\Music\Xenturion Prime - Mecha Rising [Bonus].wav
     Пиковый уровень 99.6 %
     Скорость извлечения 3.7 X
     Качество диапазона 99.9 %
     CRC теста 816C6539
     CRC копии 816C6539
     Копирование... OK
Ошибок не произошло
AccurateRip: сводка
Трек  1  отсутствует в базе данных
Трек  2  отсутствует в базе данных
Трек  3  отсутствует в базе данных
Трек  4  отсутствует в базе данных
Трек  5  отсутствует в базе данных
Трек  6  отсутствует в базе данных
Ни одного трека нет в базе AccurateRip
Конец отчёта
---- CUETools DB Plugin V2.1.4
[CTDB TOCID: fldjW_umjMZ3DUbInW6Cm_WQsH4-] found
Submit result: fldjW_umjMZ3DUbInW6Cm_WQsH4- has been confirmed
Track | CTDB Status
  1   | (4/4) Accurately ripped
  2   | (4/4) Accurately ripped
  3   | (4/4) Accurately ripped
  4   | (4/4) Accurately ripped
  5   | (4/4) Accurately ripped
  6   | (4/4) Accurately ripped
==== Контрольная сумма отчёта 8F31A00DAA93C9742531497E1DCF85F2F696FBEB18EC5A8C474E32969E986527 ====
Код:
REM GENRE "Future Pop"
REM DATE 2014
REM DISCID 890E1A0C
REM COMMENT "ExactAudioCopy v1.0b3"
PERFORMER "Xenturion Prime"
TITLE "Mecha Rising"
FILE "01. Mecha.flac" WAVE
  TRACK 01 AUDIO
    TITLE "Mecha"
    PERFORMER "Xenturion Prime"
    ISRC SEYFX1400501
    INDEX 01 00:00:00
FILE "02. Rise.flac" WAVE
  TRACK 02 AUDIO
    TITLE "Rise"
    PERFORMER "Xenturion Prime"
    ISRC SEYFX1400502
    INDEX 01 00:00:00
  TRACK 03 AUDIO
    TITLE "Transmissions"
    PERFORMER "Xenturion Prime"
    ISRC SEYFX1400503
    INDEX 00 04:01:07
FILE "03. Transmissions.flac" WAVE
    INDEX 01 00:00:00
FILE "04. Second Nature.flac" WAVE
  TRACK 04 AUDIO
    TITLE "Second Nature"
    PERFORMER "Xenturion Prime"
    ISRC SEYFX1400504
    INDEX 01 00:00:00
FILE "05. Radiant.flac" WAVE
  TRACK 05 AUDIO
    TITLE "Radiant"
    PERFORMER "Xenturion Prime"
    ISRC SEYFX1400505
    INDEX 01 00:00:00
FILE "06. Vermilion.flac" WAVE
  TRACK 06 AUDIO
    TITLE "Vermilion"
    PERFORMER "Xenturion Prime"
    ISRC SEYFX1400506
    INDEX 01 00:00:00
FILE "07. Voyagers.flac" WAVE
  TRACK 07 AUDIO
    TITLE "Voyagers"
    PERFORMER "Xenturion Prime"
    ISRC SEYFX1400507
    INDEX 01 00:00:00
  TRACK 08 AUDIO
    TITLE "Realms"
    PERFORMER "Xenturion Prime"
    ISRC SEYFX1400508
    INDEX 00 05:51:56
FILE "08. Realms.flac" WAVE
    INDEX 01 00:00:00
FILE "09. Ignition Power Up.flac" WAVE
  TRACK 09 AUDIO
    TITLE "Ignition Power Up"
    PERFORMER "Xenturion Prime"
    ISRC SEYFX1400509
    INDEX 01 00:00:00
FILE "10. Skyline.flac" WAVE
  TRACK 10 AUDIO
    TITLE "Skyline"
    PERFORMER "Xenturion Prime"
    ISRC SEYFX1400510
    INDEX 01 00:00:00
FILE "11. Elite.flac" WAVE
  TRACK 11 AUDIO
    TITLE "Elite"
    PERFORMER "Xenturion Prime"
    ISRC SEYFX1400511
    INDEX 01 00:00:00
FILE "12. Beyond Infinity.flac" WAVE
  TRACK 12 AUDIO
    TITLE "Beyond Infinity"
    PERFORMER "Xenturion Prime"
    ISRC SEYFX1400512
    INDEX 01 00:00:00
Код:
REM GENRE "Future Pop"
REM DATE 2014
REM DISCID 29071D06
REM COMMENT "ExactAudioCopy v1.0b3"
PERFORMER "Xenturion Prime"
TITLE "Mecha Rising [Bonus]"
FILE "01. Elite (Essence Of Mind RMX).flac" WAVE
  TRACK 01 AUDIO
    TITLE "Elite (Essence Of Mind RMX)"
    PERFORMER "Xenturion Prime"
    FLAGS DCP
    INDEX 01 00:00:00
FILE "02. Makrowave.flac" WAVE
  TRACK 02 AUDIO
    TITLE "Makrowave"
    PERFORMER "Xenturion Prime"
    FLAGS DCP
    INDEX 01 00:00:00
FILE "03. Radiant (SIDelicious RMX By HasseM).flac" WAVE
  TRACK 03 AUDIO
    TITLE "Radiant (SIDelicious RMX By HasseM)"
    PERFORMER "Xenturion Prime"
    FLAGS DCP
    INDEX 01 00:00:00
FILE "04. Elite (Hell Sector Remix).flac" WAVE
  TRACK 04 AUDIO
    TITLE "Elite (Hell Sector Remix)"
    PERFORMER "Xenturion Prime"
    FLAGS DCP
    INDEX 01 00:00:00
FILE "05. Vermilion (3x0 Cosmos RMX).flac" WAVE
  TRACK 05 AUDIO
    TITLE "Vermilion (3x0 Cosmos RMX)"
    PERFORMER "Xenturion Prime"
    FLAGS DCP
    INDEX 01 00:00:00
FILE "06. United.flac" WAVE
  TRACK 06 AUDIO
    TITLE "United"
    PERFORMER "Xenturion Prime"
    FLAGS DCP
    INDEX 01 00:00:00
Код:
-----------------------
DON'T MODIFY THIS FILE
-----------------------
PERFORMER: auCDtect Task Manager, ver. 1.6.0 RC1 build 1.6.0.1
Copyright (c) 2008-2010 y-soft. All rights reserved
[url=http://y-soft.org]http://y-soft.org[/url]
ANALYZER: auCDtect: CD records authenticity detector, version 0.8.2
Copyright (c) 2004 Oleg Berngardt. All rights reserved.
Copyright (c) 2004 Alexander Djourik. All rights reserved.
FILE: 12. Beyond Infinity.flac
  Size: 19197916 Hash: 8E87DF204630521F21BECEA18A733A3A Accuracy: -m0
  Conclusion: CDDA 100%
  Signature: 5C23F2595FAE601A05430705429C64595BCF4991
FILE: 11. Elite.flac
  Size: 46108413 Hash: B224E442F83E7E198BFA038A391A8F01 Accuracy: -m0
  Conclusion: CDDA 100%
  Signature: BE702F642EBAEEC7BE3C919F6083666CCA94C88A
FILE: 10. Skyline.flac
  Size: 59457335 Hash: F5350DC29D9700FB6DA635EB10F53948 Accuracy: -m0
  Conclusion: CDDA 100%
  Signature: 1018A17D3D6B1237444EDB91ECE27F6AF42A46AE
FILE: 09. Ignition Power Up.flac
  Size: 34771825 Hash: 667893BA8768E95C4683C6ADD22F088E Accuracy: -m0
  Conclusion: CDDA 100%
  Signature: 720E8C6C471C8D393D12CF97C8EE92A582B9EF37
FILE: 08. Realms.flac
  Size: 28994395 Hash: 85C143E10FEACDCDFE8A96703EEA411A Accuracy: -m0
  Conclusion: CDDA 99%
  Signature: C1C6BAE45CF799925FB840FC243F144CC8B95CFC
FILE: 07. Voyagers.flac
  Size: 45057759 Hash: B2DD2F24875C75F2CB0742BC90AFD043 Accuracy: -m0
  Conclusion: CDDA 100%
  Signature: 0E9F7797669EBDE422D3BD5EC8910F21890DA615
FILE: 06. Vermilion.flac
  Size: 34313266 Hash: D5AFAABEC5093D0D61164AFDB40C3AFA Accuracy: -m0
  Conclusion: CDDA 100%
  Signature: 2F832E73D28DCAE06549B76BA5CC1AB1ABB0586C
FILE: 05. Radiant.flac
  Size: 55617343 Hash: 42933AD01A9EFD62A14AABB945B1D181 Accuracy: -m0
  Conclusion: CDDA 100%
  Signature: 00CCB9C9139E78DBEF638900A88E4A2C009DCEE0
FILE: 04. Second Nature.flac
  Size: 47386235 Hash: 0DE644892CF59555E937F6922DBDED39 Accuracy: -m0
  Conclusion: CDDA 99%
  Signature: 75FC31A3636473DC8D006DE214D70AE820F4E8BA
FILE: 03. Transmissions.flac
  Size: 32187472 Hash: 30C58DC236C8E9F1523CFDC8C8A6FABF Accuracy: -m0
  Conclusion: CDDA 100%
  Signature: B7968DA35B728CC53154BD0BC8FC10A5A22E7537
FILE: 02. Rise.flac
  Size: 32406913 Hash: B503688948630B2429D3BBD014509FB3 Accuracy: -m0
  Conclusion: CDDA 100%
  Signature: 4E7C819397C8608BAEE34620FB4DE86151C69ABF
FILE: 01. Mecha.flac
  Size: 23521534 Hash: 94EE0C5C5652938935D7FBF788B9FD1D Accuracy: -m0
  Conclusion: CDDA 100%
  Signature: 5CC388C16ECF75BD87C3BAAF03991DEB1660943A
Код:
-----------------------
DON'T MODIFY THIS FILE
-----------------------
PERFORMER: auCDtect Task Manager, ver. 1.6.0 RC1 build 1.6.0.1
Copyright (c) 2008-2010 y-soft. All rights reserved
[url=http://y-soft.org]http://y-soft.org[/url]
ANALYZER: auCDtect: CD records authenticity detector, version 0.8.2
Copyright (c) 2004 Oleg Berngardt. All rights reserved.
Copyright (c) 2004 Alexander Djourik. All rights reserved.
FILE: 06. United.flac
  Size: 42528120 Hash: 29A4A22DB88F1E3323FD0AAD31225E18 Accuracy: -m0
  Conclusion: CDDA 100%
  Signature: 71A0AA3CEA0DB8A54B214FD105AABF1FF5549FBB
FILE: 05. Vermilion (3x0 Cosmos RMX).flac
  Size: 28482779 Hash: D3D5DF2484407FEBAC1937942DDA5533 Accuracy: -m0
  Conclusion: CDDA 100%
  Signature: F880D273DBFEF266D84DD99B2AF6B79B056B667A
FILE: 04. Elite (Hell Sector Remix).flac
  Size: 38061415 Hash: D53A04FAD88CFB4C6AF868256639BB5D Accuracy: -m0
  Conclusion: CDDA 99%
  Signature: 9701E291E9829E995E54A0E2A15E7D8F0FAD8E52
FILE: 03. Radiant (SIDelicious RMX By HasseM).flac
  Size: 42120692 Hash: DECD3CF63D747430C7C25D825EE1A887 Accuracy: -m0
  Conclusion: CDDA 100%
  Signature: 96685DCE5BB1CC37BF9673B5199067411AC5864A
FILE: 02. Makrowave.flac
  Size: 37374306 Hash: 9404F10B8C13E4F37AB9EF76E9B9D011 Accuracy: -m0
  Conclusion: CDDA 100%
  Signature: EF0564C7342144CE739CA36E69C6F92364174904
FILE: 01. Elite (Essence Of Mind RMX).flac
  Size: 44539067 Hash: 971DCE5E078C55E3BEC3B0BE7D321260 Accuracy: -m0
  Conclusion: CDDA 100%
  Signature: 86CB04B877CD8A6DA4ED81DBCBE4228AB2232967
Правила, инструкции, FAQ!!!
Торрент  Добавлен [26 июн 2020, 21:12] Скачать торрент Магнет ссылка
Скачать торрент
[ Размер 16.98 КБ / Просмотров 3 ]

Статус
Проверен 
 
Размер  721.73 МБ
Приватный: Нет (DHT включён)
.torrent скачан  0
 


     Отправить личное сообщение
   
Страница 1 из 1
Показать сообщения за:  Поле сортировки  
Начать новую тему Ответить на тему


Сейчас этот форум просматривают: нет зарегистрированных пользователей и гости: 0


Вы не можете начинать темы
Вы не можете отвечать на сообщения
Вы не можете редактировать свои сообщения
Вы не можете удалять свои сообщения
Вы не можете добавлять вложения

Перейти:  
cron