Начать новую тему Ответить на тему
Статистика раздачи
Размер: 394.25 МБ | Добавлен: 26 июн 2020, 20:12 | Скачали: 0
Сидеров: 0  [0 байт/сек]    Личеров: 0  [0 байт/сек]
Пред. тема | След. тема 

Автор
Сообщение

СообщениеДобавлено: 26 июн 2020, 20:12 

Ответить с цитатой 

X-Marks the Pedwalk - The House of Rain
Жанр: EBM/Synthpop
Носитель: WEB, Album
Год издания: 2015
Издатель (лейбл): Infacted Recordings
Страна исполнителя (группы): Германия
Аудиокодек: FLAC (*.flac)
Тип рипа: tracks
Битрейт аудио: lossless
Продолжительность: 59:08
Источник (релизер): Qobuz
Наличие сканов в содержимом раздачи: Нет
Треклист:
01. The House of Rain (4:09)
02. Drowned Words (4:39)
03. We Are One (4:20)
04. Shock Therapy (4:00)
05. Amplified Dichotomy (4:11)
06. Second Home (5:36)
07. Frozen Light (4:28)
08. Happiness (6:00)
09. Go Down (5:16)
10. Far from Eden (5:32)
11. Another Dream (6:53)
12. Asynchronous (4:04)
Код:
-----------------------
DON'T MODIFY THIS FILE
-----------------------
PERFORMER: auCDtect Task Manager, ver. 1.6.0 RC1 build 1.6.0.1
Copyright © 2008-2010 y-soft. All rights reserved
[url=http://y-soft.org]http://y-soft.org[/url]
ANALYZER: auCDtect: CD records authenticity detector, version 0.8.2
Copyright © 2004 Oleg Berngardt. All rights reserved.
Copyright © 2004 Alexander Djourik. All rights reserved.
FILE: 12. Asynchronous.flac
  Size: 25411924 Hash: 0806C2C583D7442660267391BCCAD326 Accuracy: -m0
  Conclusion: CDDA 100%
  Signature: 37F04581A055855CE42FE268AA7DD91D01988F9B
FILE: 11. Another Dream.flac
  Size: 43925069 Hash: 86ECD6AFBA4A0832CE4D2151D3314A9F Accuracy: -m0
  Conclusion: CDDA 100%
  Signature: 251FBB70519E2A26D222847840F9BC9689482825
FILE: 10. Far from Eden.flac
  Size: 42447155 Hash: 72A2790584DDC36364665FA9B8F83CEC Accuracy: -m0
  Conclusion: CDDA 100%
  Signature: 2948CA0FCDB0D2912ED88697AD85848D9A807A88
FILE: 09. Go Down.flac
  Size: 42021229 Hash: 99BD4D3E778500402EDD715DAC8A2C57 Accuracy: -m0
  Conclusion: CDDA 100%
  Signature: 7C9B010B3D91EA0CF7E8423AC79BE232FF05601D
FILE: 08. Happiness.flac
  Size: 42430793 Hash: EB62C042203CD9480FEFC56AED441735 Accuracy: -m0
  Conclusion: CDDA 100%
  Signature: 27DFBC8E86CFB835068988DD96868302F94CEB07
FILE: 07. Frozen Light.flac
  Size: 27646017 Hash: E5DFD2B5A2E2BA82E82E6B6DDE35C135 Accuracy: -m0
  Conclusion: CDDA 99%
  Signature: 1AA5B4CCBB625A7E8C3332EDD4B3C4EA9E433A82
FILE: 06. Second Home.flac
  Size: 42229989 Hash: FD757AF4AFF27DD4D7AAD44392F99A4C Accuracy: -m0
  Conclusion: CDDA 100%
  Signature: E06F1373BE0C0D5CD443D5BF1D5A3AD40B4FB8A2
FILE: 05. Amplified Dichotomy.flac
  Size: 30745369 Hash: 9B6ABEA9CA94F4DC2F629BE228AEE62F Accuracy: -m0
  Conclusion: CDDA 100%
  Signature: 50BC7420F3837DB1E9920872EFEC52820E13DFE2
FILE: 04. Shock Therapy.flac
  Size: 24914399 Hash: 82528CD1454A849E4819C1C211E80AFC Accuracy: -m0
  Conclusion: CDDA 100%
  Signature: 9F7AE548AD5ED69C1CD309744CFF0911848EB0B3
FILE: 03. We Are One.flac
  Size: 30791067 Hash: 44B9E7364AC02F1F6D9AD5ED2804CDB5 Accuracy: -m0
  Conclusion: CDDA 100%
  Signature: FEA498F9CFF0156426CFD938844C765FE5B32144
FILE: 02. Drowned Words.flac
  Size: 32615399 Hash: 3812CFD21578A40243472668F153A1FF Accuracy: -m0
  Conclusion: CDDA 100%
  Signature: 18398DEFBC5D96958ECFA582506443054814AFB1
FILE: 01. The House of Rain.flac
  Size: 28143080 Hash: D95C558CF9222C917FF0733BFBB13051 Accuracy: -m0
  Conclusion: CDDA 100%
  Signature: 817A5E4BEECB89ABF6A931BADE4642F26D891DA5
foobar2000 1.3.5 / Замер динамического диапазона (DR) 1.1.1
Дата отчёта: 2015-03-27 12:28:31
--------------------------------------------------------------------------------
Анализ: X-Marks the Pedwalk / The House of Rain
--------------------------------------------------------------------------------
DR Пики RMS Продолжительность трека
--------------------------------------------------------------------------------
DR8 0.00 дБ -10.13 дБ 4:09 01-The House of Rain
DR8 0.00 дБ -9.17 дБ 4:39 02-Drowned Words
DR8 0.00 дБ -10.56 дБ 4:20 03-We Are One
DR8 0.00 дБ -9.88 дБ 4:00 04-Shock Therapy
DR7 0.00 дБ -8.77 дБ 4:11 05-Amplified Dichotomy
DR7 0.00 дБ -9.76 дБ 5:36 06-Second Home
DR11 0.00 дБ -13.16 дБ 4:28 07-Frozen Light
DR7 0.00 дБ -8.94 дБ 6:00 08-Happiness
DR8 0.00 дБ -9.26 дБ 5:16 09-Go Down
DR8 0.00 дБ -9.19 дБ 5:32 10-Far from Eden
DR9 0.00 дБ -11.09 дБ 6:53 11-Another Dream
DR8 0.00 дБ -10.65 дБ 4:04 12-Asynchronous
--------------------------------------------------------------------------------
Количество треков: 12
Реальные значения DR: DR8
Частота: 44100 Гц
Каналов: 2
Разрядность: 16
Битрейт: 833 кбит/с
Кодек: FLAC
================================================================================
Правила, инструкции, FAQ!!!
Торрент  Добавлен [26 июн 2020, 20:12] Скачать торрент Магнет ссылка
Скачать торрент
[ Размер 16.64 КБ / Просмотров 3 ]

Статус
Проверен 
 
Размер  394.25 МБ
Приватный: Нет (DHT включён)
.torrent скачан  0
 


     Отправить личное сообщение
   
Страница 1 из 1
Показать сообщения за:  Поле сортировки  
Начать новую тему Ответить на тему


Сейчас этот форум просматривают: нет зарегистрированных пользователей и гости: 0


Вы не можете начинать темы
Вы не можете отвечать на сообщения
Вы не можете редактировать свои сообщения
Вы не можете удалять свои сообщения
Вы не можете добавлять вложения

Перейти:  
cron