Начать новую тему Ответить на тему
Статистика раздачи
Размер: 378.41 МБ | Добавлен: 26 июн 2020, 17:32 | Скачали: 0
Сидеров: 0  [0 байт/сек]    Личеров: 0  [0 байт/сек]
Пред. тема | След. тема 

Автор
Сообщение

СообщениеДобавлено: 26 июн 2020, 17:32 

Ответить с цитатой 

Massiv In Mensch - Meanwhile Back In The Jungle
Жанр: EBM / Synthpop / Futurepop
Год выпуска диска: 2008
Производитель диска: Canada
Аудио кодек: APE
Тип рипа: image+.cue
Битрейт аудио: lossless
Продолжительность: 55:46
Трэклист:
1 Meanwhile Back In The Jungle (1:13)
2 Supermassive Gravity (3:12)
Featuring - Mind.In.A.Box
3 Never Trust The Outline (4:48)
4 Pink Dream (4:45)
5 Ikonoklast! (3:50)
6 Hou Je Bek Vuile Teef (4:29)
7 Alone (4:12)
8 Powerful (4:48)
9 Meer Der Tausend Farben (3:01)
10 As I Wake By Your Side (3:53)
11 Pygmalion/Reloaded (4:56)
12 Elitär (3:01)
13 Crystal (5:40)
14 In Zeiten Wie Diesen 2008 (3:54)
Доп. информация: Artoffact Records; AOF067
Код:
Exact Audio Copy V0.99 prebeta 4 from 23. January 2008
EAC extraction logfile from 28. March 2009, 0:16
Massiv In Mensch / Meanwhile Back In The Jungle
Used drive  : TEAC    DV-W520GS   Adapter: 5  ID: 0
Read mode               : Secure
Utilize accurate stream : Yes
Defeat audio cache      : Yes
Make use of C2 pointers : No
Read offset correction                      : 6
Overread into Lead-In and Lead-Out          : No
Fill up missing offset samples with silence : Yes
Delete leading and trailing silent blocks   : No
Null samples used in CRC calculations       : Yes
Used interface                              : Installed external ASPI interface
Used output format : Internal WAV Routines
Sample format      : 44.100 Hz; 16 Bit; Stereo
TOC of the extracted CD
     Track |   Start  |  Length  | Start sector | End sector
    ---------------------------------------------------------
        1  |  0:00.00 |  1:13.27 |         0    |     5501
        2  |  1:13.27 |  3:12.36 |      5502    |    19937
        3  |  4:25.63 |  4:48.40 |     19938    |    41577
        4  |  9:14.28 |  4:45.18 |     41578    |    62970
        5  | 13:59.46 |  3:49.74 |     62971    |    80219
        6  | 17:49.45 |  4:29.37 |     80220    |   100431
        7  | 22:19.07 |  4:12.64 |    100432    |   119395
        8  | 26:31.71 |  4:48.14 |    119396    |   141009
        9  | 31:20.10 |  3:01.36 |    141010    |   154620
       10  | 34:21.46 |  3:53.14 |    154621    |   172109
       11  | 38:14.60 |  4:56.03 |    172110    |   194312
       12  | 43:10.63 |  3:01.05 |    194313    |   207892
       13  | 46:11.68 |  5:40.44 |    207893    |   233436
       14  | 51:52.37 |  3:53.73 |    233437    |   250984
Range status and errors
Selected range
   Filename H:\Massiv In Mensch - Meanwhile Back In The Jungle\CDImage.wav
   Peak level 100.0 %
   Range quality 100.0 %
   Test CRC CF382733
   Copy CRC CF382733
   Copy OK
No errors occurred
AccurateRip summary
Track  1  not present in database
Track  2  not present in database
Track  3  not present in database
Track  4  not present in database
Track  5  not present in database
Track  6  not present in database
Track  7  not present in database
Track  8  not present in database
Track  9  not present in database
Track 10  not present in database
Track 11  not present in database
Track 12  not present in database
Track 13  not present in database
Track 14  not present in database
None of the tracks are present in the AccurateRip database
End of status report
Код:
AUDIOCHECKER v2.0 beta (build 457) - by Dester - opdester@freemail.hu
~~~~~~~~~~~~~~~~~~~~~~~~~~~~~~~~~~
-=== DO NOT EDIT THIS FILE! ===-
Path: ...\Massiv In Mensch - Meanwhile Back In The Jungle
01 -=- CDImage.wav -=- CDDA (100%)
190127764
Cканы комплекте.
Не забываем про спасибы
Правила, инструкции, FAQ!!!
Торрент  Добавлен [26 июн 2020, 17:32] Скачать торрент Магнет ссылка
Скачать торрент
[ Размер 15.69 КБ / Просмотров 12 ]

Статус
Проверен 
 
Размер  378.41 МБ
Приватный: Нет (DHT включён)
.torrent скачан  0
 


     Отправить личное сообщение
   
Страница 1 из 1
Показать сообщения за:  Поле сортировки  
Начать новую тему Ответить на тему


Сейчас этот форум просматривают: нет зарегистрированных пользователей и гости: 0


Вы не можете начинать темы
Вы не можете отвечать на сообщения
Вы не можете редактировать свои сообщения
Вы не можете удалять свои сообщения
Вы не можете добавлять вложения

Перейти:  
cron