Начать новую тему Ответить на тему
Статистика раздачи
Размер: 534.1 МБ | Добавлен: 26 июн 2020, 20:41 | Скачали: 0
Сидеров: 0  [0 байт/сек]    Личеров: 0  [0 байт/сек]
Пред. тема | След. тема 

Автор
Сообщение

СообщениеДобавлено: 26 июн 2020, 20:41 

Ответить с цитатой 

The Azoic - Forward + Conflict
Жанр: EBM, Synthpop, Electro
Носитель: CD
Страна-производитель диска: U.S.
Год издания: 2004
Издатель (лейбл): Infacted Recordings
Номер по каталогу: FACT 3007-2
Страна: U.S.
Аудиокодек: FLAC (*.flac)
Тип рипа: image+.cue
Битрейт аудио: lossless
Продолжительность: 1:15:58
Источник (релизер): Rekhyt
Наличие сканов в содержимом раздачи: нет
Треклист:
1. Conflict (Turmoil Mix) (5:21)
2. Conflict (Combichrist Mix) (4:55)
3. Carve Into You (2003 Edit) (5:43)
4. Progression (Dirge) (6:03)
5. Not Justified (4:01)
6. Conflict (Massiv In Mensch Mix) (4:38)
7. Evolution (4:32)
8. Redemption (3:59)
9. Lost (4:58)
10. Conflict (Negative Format Mix) (7:35)
11. Not Justified (MADEbelief Mix) (4:23)
12. Conflict (Alpha Conspiracy Mix) (6:50)
13. Harsh Reality (4:21)
14. Evolution (Dillusional Mix) (4:23)
15. Progression (God Module Mix) (4:20)
Код:
Exact Audio Copy V1.0 beta 3 from 29. August 2011
EAC extraction logfile from 21. September 2012, 12:24
The Azoic / Forward + Conflict
Used drive  : ATAPI   iHAS424   B   Adapter: 3  ID: 0
Read mode               : Secure
Utilize accurate stream : Yes
Defeat audio cache      : Yes
Make use of C2 pointers : No
Read offset correction                      : 6
Overread into Lead-In and Lead-Out          : No
Fill up missing offset samples with silence : Yes
Delete leading and trailing silent blocks   : No
Null samples used in CRC calculations       : Yes
Used interface                              : Native Win32 interface for Win NT & 2000
Used output format              : User Defined Encoder
Selected bitrate                : 1024 kBit/s
Quality                         : High
Add ID3 tag                     : No
Command line compressor         : C:\Program Files (x86)\Exact Audio Copy\FLAC\FLAC.EXE
Additional command line options : -V -8 -T "Date=%year%" -T "Genre=%genre%" %source%
TOC of the extracted CD
     Track |   Start  |  Length  | Start sector | End sector
    ---------------------------------------------------------
        1  |  0:00.00 |  5:21.04 |         0    |    24078
        2  |  5:21.04 |  4:54.40 |     24079    |    46168
        3  | 10:15.44 |  5:42.43 |     46169    |    71861
        4  | 15:58.12 |  6:02.61 |     71862    |    99072
        5  | 22:00.73 |  4:01.08 |     99073    |   117155
        6  | 26:02.06 |  4:37.50 |    117156    |   137980
        7  | 30:39.56 |  4:31.49 |    137981    |   158354
        8  | 35:11.30 |  3:58.64 |    158355    |   176268
        9  | 39:10.19 |  4:57.40 |    176269    |   198583
       10  | 44:07.59 |  7:34.47 |    198584    |   232680
       11  | 51:42.31 |  4:22.71 |    232681    |   252401
       12  | 56:05.27 |  6:49.50 |    252402    |   283126
       13  | 62:55.02 |  4:20.45 |    283127    |   302671
       14  | 67:15.47 |  4:23.33 |    302672    |   322429
       15  | 71:39.05 |  4:19.58 |    322430    |   341912
Range status and errors
Selected range
     Filename E:\Downloads\The Azoic\The Azoic - Forward + Conflict\The Azoic - Forward + Conflict.wav
     Peak level 100.0 %
     Extraction speed 5.0 X
     Range quality 100.0 %
     Test CRC F6187E80
     Copy CRC F6187E80
     Copy OK
No errors occurred
AccurateRip summary
Track  1  accurately ripped (confidence 2)  [7B69B96B]  (AR v2)
Track  2  accurately ripped (confidence 2)  [39889DFF]  (AR v2)
Track  3  accurately ripped (confidence 2)  [A4BF0457]  (AR v2)
Track  4  accurately ripped (confidence 2)  [F28FD078]  (AR v2)
Track  5  accurately ripped (confidence 2)  [CBABC6B8]  (AR v2)
Track  6  accurately ripped (confidence 2)  [35CF11AA]  (AR v2)
Track  7  accurately ripped (confidence 2)  [99A61B7F]  (AR v2)
Track  8  accurately ripped (confidence 2)  [6BB27681]  (AR v2)
Track  9  accurately ripped (confidence 2)  [E50D7AE5]  (AR v2)
Track 10  accurately ripped (confidence 2)  [8A8DB615]  (AR v2)
Track 11  accurately ripped (confidence 2)  [56DA5BCF]  (AR v2)
Track 12  accurately ripped (confidence 2)  [3B62BF7E]  (AR v2)
Track 13  accurately ripped (confidence 2)  [8A7A9907]  (AR v2)
Track 14  accurately ripped (confidence 2)  [61CFEE27]  (AR v2)
Track 15  accurately ripped (confidence 2)  [026027AB]  (AR v2)
All tracks accurately ripped
End of status report
==== Log checksum C7207BF3D4C7956A1003A15A8071E98DFF6BA48C059ABC25E705DB667C8F54A5 ====
Код:
REM DATE 2004
REM DISCID BE11CE0F
REM COMMENT "ExactAudioCopy v1.0b3"
PERFORMER "The Azoic"
TITLE "Forward + Conflict"
FILE "The Azoic - Forward + Conflict.flac" WAVE
  TRACK 01 AUDIO
    TITLE "Conflict (Turmoil Mix)"
    PERFORMER "The Azoic"
    INDEX 01 00:00:00
  TRACK 02 AUDIO
    TITLE "Conflict (Combichrist Mix)"
    PERFORMER "The Azoic"
    INDEX 00 05:19:04
    INDEX 01 05:21:04
  TRACK 03 AUDIO
    TITLE "Carve Into You (2003 Edit)"
    PERFORMER "The Azoic"
    INDEX 00 10:13:44
    INDEX 01 10:15:44
  TRACK 04 AUDIO
    TITLE "Progression (Dirge)"
    PERFORMER "The Azoic"
    INDEX 00 15:56:12
    INDEX 01 15:58:12
  TRACK 05 AUDIO
    TITLE "Not Justified"
    PERFORMER "The Azoic"
    INDEX 00 21:58:73
    INDEX 01 22:00:73
  TRACK 06 AUDIO
    TITLE "Conflict (Massiv In Mensch Mix)"
    PERFORMER "The Azoic"
    INDEX 00 26:00:06
    INDEX 01 26:02:06
  TRACK 07 AUDIO
    TITLE "Evolution"
    PERFORMER "The Azoic"
    INDEX 00 30:37:56
    INDEX 01 30:39:56
  TRACK 08 AUDIO
    TITLE "Redemption"
    PERFORMER "The Azoic"
    INDEX 00 35:09:30
    INDEX 01 35:11:30
  TRACK 09 AUDIO
    TITLE "Lost"
    PERFORMER "The Azoic"
    INDEX 00 39:08:19
    INDEX 01 39:10:19
  TRACK 10 AUDIO
    TITLE "Conflict (Negative Format Mix)"
    PERFORMER "The Azoic"
    INDEX 00 44:05:59
    INDEX 01 44:07:59
  TRACK 11 AUDIO
    TITLE "Not Justified (MADEbelief Mix)"
    PERFORMER "The Azoic"
    INDEX 00 51:40:31
    INDEX 01 51:42:31
  TRACK 12 AUDIO
    TITLE "Conflict (Alpha Conspiracy Mix)"
    PERFORMER "The Azoic"
    INDEX 00 56:03:27
    INDEX 01 56:05:27
  TRACK 13 AUDIO
    TITLE "Harsh Reality"
    PERFORMER "The Azoic"
    INDEX 00 62:53:02
    INDEX 01 62:55:02
  TRACK 14 AUDIO
    TITLE "Evolution (Dillusional Mix)"
    PERFORMER "The Azoic"
    INDEX 00 67:13:47
    INDEX 01 67:15:47
  TRACK 15 AUDIO
    TITLE "Progression (God Module Mix)"
    PERFORMER "The Azoic"
    INDEX 00 71:37:05
    INDEX 01 71:39:05
Код:
AUDIOCHECKER v2.0 beta (build 457) - by Dester - opdester@freemail.hu
~~~~~~~~~~~~~~~~~~~~~~~~~~~~~~~~~~
-=== DO NOT EDIT THIS FILE! ===-
Path: ...\The Azoic - Forward + Conflict
1 -=- The Azoic - Forward + Conflict.flac -=- CDDA (100%)
155179460
http://www.discogs.com/Azoic-Forward-Conflict/release/330783 (manually put in URL / вручную положить в URL)
Правила, инструкции, FAQ!!!
Торрент  Добавлен [26 июн 2020, 20:41] Скачать торрент Магнет ссылка
Скачать торрент
[ Размер 11.13 КБ / Просмотров 0 ]

Статус
Проверен 
 
Размер  534.1 МБ
Приватный: Нет (DHT включён)
.torrent скачан  0
 


     Отправить личное сообщение
   
Страница 1 из 1
Показать сообщения за:  Поле сортировки  
Начать новую тему Ответить на тему


Сейчас этот форум просматривают: нет зарегистрированных пользователей и гости: 0


Вы не можете начинать темы
Вы не можете отвечать на сообщения
Вы не можете редактировать свои сообщения
Вы не можете удалять свои сообщения
Вы не можете добавлять вложения

Перейти:  
cron