Начать новую тему Ответить на тему
Статистика раздачи
Размер: 415.08 МБ | Добавлен: 26 июн 2020, 21:11 | Скачали: 0
Сидеров: 0  [0 байт/сек]    Личеров: 0  [0 байт/сек]
Пред. тема | След. тема 

Автор
Сообщение

СообщениеДобавлено: 26 июн 2020, 21:11 

Ответить с цитатой 

Танцы на воле / Телевизионный снег. Адаптация
Жанр: (EBM, Synthpop, Darkwave)
Страна-производитель диска: Россия
Год издания диска: 1998
Издатель (лейбл): RCR
Номер по каталогу: RCRCD 003-98
Страна: Россия
Аудио кодек: FLAC (*.flac)
Тип рипа: image+.cue
Битрейт аудио: lossless
Продолжительность: 57:00
Источник (релизер): личный CD
Наличие сканов в содержимом раздачи: нет
Треклист:
1. Телевизионный снег
2. Телевизионный снег - вокал Эйтан Марулис "Spahn Ranch" (Usa)
3. Телевизионный снег - Remix
4. Звери
5. Звери - Remix
6. Бардак - Инструментал
7. 5-ый элемент - Инструментал
8. Никто не спас
9. Левый правый - Remix
10. Послушай меня - Remix
11. Телевизионный снег - Минус
Код:
Exact Audio Copy V0.99 prebeta 5 from 4. May 2009
EAC extraction logfile from 14. November 2010, 19:46
Танцы на воле / Адаптация
Used drive  : _NEC    DVD_RW ND-3520AW   Adapter: 6  ID: 0
Read mode               : Secure
Utilize accurate stream : Yes
Defeat audio cache      : Yes
Make use of C2 pointers : No
Read offset correction                      : 48
Overread into Lead-In and Lead-Out          : No
Fill up missing offset samples with silence : Yes
Delete leading and trailing silent blocks   : No
Null samples used in CRC calculations       : Yes
Used interface                              : Native Win32 interface for Win NT & 2000
Used output format              : User Defined Encoder
Selected bitrate                : 1024 kBit/s
Quality                         : High
Add ID3 tag                     : No
Command line compressor         : C:\Program Files (x86)\Exact Audio Copy\FLAC\FLAC.EXE
Additional command line options : -T "DATE=%y" -T "GENRE=%m" -8 -V %s
TOC of the extracted CD
     Track |   Start  |  Length  | Start sector | End sector
    ---------------------------------------------------------
        1  |  0:00.55 |  5:30.18 |        55    |    24822
        2  |  5:30.73 |  5:25.17 |     24823    |    49214
        3  | 10:56.15 |  4:33.44 |     49215    |    69733
        4  | 15:29.59 |  3:44.18 |     69734    |    86551
        5  | 19:14.02 |  5:14.31 |     86552    |   110132
        6  | 24:28.33 |  7:36.45 |    110133    |   144377
        7  | 32:05.03 |  5:40.65 |    144378    |   169942
        8  | 37:45.68 |  4:15.55 |    169943    |   189122
        9  | 42:01.48 |  4:16.28 |    189123    |   208350
       10  | 46:18.01 |  5:17.65 |    208351    |   232190
       11  | 51:35.66 |  5:25.06 |    232191    |   256571
Range status and errors
Selected range
     Filename D:\Танцы на воле - Адаптация.wav
     Peak level 98.8 %
     Range quality 100.0 %
     Test CRC 5C93CA96
     Copy CRC 5C93CA96
     Copy OK
No errors occurred
End of status report
Правила, инструкции, FAQ!!!
Торрент  Добавлен [26 июн 2020, 21:11] Скачать торрент Магнет ссылка
Скачать торрент
[ Размер 16.91 КБ / Просмотров 9 ]

Статус
Проверен 
 
Размер  415.08 МБ
Приватный: Нет (DHT включён)
.torrent скачан  0
 


     Отправить личное сообщение
   
Страница 1 из 1
Показать сообщения за:  Поле сортировки  
Начать новую тему Ответить на тему


Сейчас этот форум просматривают: нет зарегистрированных пользователей и гости: 0


Вы не можете начинать темы
Вы не можете отвечать на сообщения
Вы не можете редактировать свои сообщения
Вы не можете удалять свои сообщения
Вы не можете добавлять вложения

Перейти:  
cron