Начать новую тему Ответить на тему
Статистика раздачи
Размер: 288.87 МБ | Добавлен: 26 июн 2020, 17:51 | Скачали: 0
Сидеров: 0  [0 байт/сек]    Личеров: 0  [0 байт/сек]
Пред. тема | След. тема 

Автор
Сообщение

СообщениеДобавлено: 26 июн 2020, 17:51 

Ответить с цитатой 

Tomas Tulpe / Wie War's Mit Senf?
Жанр: EBM, Synth-pop
Носитель: CD
Страна-производитель диска (релиза): Germany
Год издания: 2014
Издатель (лейбл): Zett-Records
Номер по каталогу: 766246-2
Страна исполнителя (группы): Germany
Аудиокодек: FLAC (*.flac)
Тип рипа: image+.cue
Продолжительность: 0:42:27:13
Источник: собственный рип
Наличие сканов в содержимом раздачи: нет
Треклист:
1 Ich Rasta Aus! 3:13
2 Schmier Mir Eine Schnitte 2:50
3 Issat Tach Issat Nacht 2:32
4 Knete Im Kopf 3:15
5 Eis 2:43
6 Hausverbot Im Späti 3:51
7 Tarzan (Eine Traume) 2:38
8 Fett Schwimmt Oben 3:18
9 Hamburger Schule 1:16
10 Wir Trinken Wenig 2:19
11 Mädchen Ohne BH 3:55
12 Nimm Die Hände Aus Den Taschen Mein Junge Das Sieht Doch Nicht Aus 2:03
13 F***en Sagt Man Nicht 2:24
14 Willst Du Mit Mir Gehn? 3:37
15 Handball-Melodie 2:34
Код:
Exact Audio Copy V1.0 beta 3 from 29. August 2011
Отчёт EAC об извлечении, выполненном 9. ноября 2019, 21:42
Tomas Tulpe / Wie Wär's Mit Senf?
Дисковод: TSSTcorpCDDVDW SH-224DB   Adapter: 1  ID: 0
Режим чтения                 : Достоверность
Использование точного потока : Да
Отключение кэша аудио        : Да
Использование указателей C2  : Нет
Коррекция смещения при чтении                     : 6
Способность читать области Lead-in и Lead-out     : Нет
Заполнение пропущенных сэмплов тишиной            : Да
Удаление блоков с тишиной в начале и конце        : Нет
При вычислениях CRC использовались нулевые сэмплы : Да
Интерфейс                                         : Встроенный Win32-интерфейс для Win NT/2000
Выходной формат          : Пользовательский кодировщик
Выбранный битрейт        : 128 kBit/s
Качество                 : Высокий
Добавление ID3-тега      : Нет
Утилита сжатия           : C:\Program Files (x86)\FLAC\flac.exe
Дополнительные параметры : -V -8 -T "Date=%year%" -T "Genre=%genre%" %source%
TOC извлечённого CD
     Трек |   Старт  | Длительность | Начальный сектор | Конечный сектор
    ---------------------------------------------------------------------
       1  |  0:00.00 |    3:12.44   |           0      |      14443
       2  |  3:12.44 |    2:50.18   |       14444      |      27211
       3  |  6:02.62 |    2:32.00   |       27212      |      38611
       4  |  8:34.62 |    3:14.61   |       38612      |      53222
       5  | 11:49.48 |    2:43.11   |       53223      |      65458
       6  | 14:32.59 |    3:50.57   |       65459      |      82765
       7  | 18:23.41 |    2:37.56   |       82766      |      94596
       8  | 21:01.22 |    3:17.43   |       94597      |     109414
       9  | 24:18.65 |    1:16.19   |      109415      |     115133
      10  | 25:35.09 |    2:19.15   |      115134      |     125573
      11  | 27:54.24 |    3:55.24   |      125574      |     143222
      12  | 31:49.48 |    2:02.69   |      143223      |     152441
      13  | 33:52.42 |    2:23.69   |      152442      |     163235
      14  | 36:16.36 |    3:36.36   |      163236      |     179471
      15  | 39:52.72 |    2:34.16   |      179472      |     191037
Характеристики диапазона извлечения и сообщения об ошибках
Выбранный диапазон
     Имя файла C:\EAC\Tomas Tulpe ‎– Wie War's Mit Senf\Tomas Tulpe - Wie Wär's Mit Senf.wav
     Пиковый уровень 98.8 %
     Скорость извлечения 6.9 X
     Качество диапазона 100.0 %
     CRC теста B17E1C65
     CRC копии B17E1C65
     Копирование... OK
Ошибок не произошло
AccurateRip: сводка
Трек  1  отсутствует в базе данных
Трек  2  отсутствует в базе данных
Трек  3  отсутствует в базе данных
Трек  4  отсутствует в базе данных
Трек  5  отсутствует в базе данных
Трек  6  отсутствует в базе данных
Трек  7  отсутствует в базе данных
Трек  8  отсутствует в базе данных
Трек  9  отсутствует в базе данных
Трек 10  отсутствует в базе данных
Трек 11  отсутствует в базе данных
Трек 12  отсутствует в базе данных
Трек 13  отсутствует в базе данных
Трек 14  отсутствует в базе данных
Трек 15  отсутствует в базе данных
Ни одного трека нет в базе AccurateRip
Конец отчёта
==== Контрольная сумма отчёта B3CAD39649DC17F48F90EF6FD96C171D1E5838992ABFA7B0B0D13C36A7185107 ====
Код:
REM DATE 2014
REM DISCID C009F30F
REM COMMENT "ExactAudioCopy v1.0b3"
PERFORMER "Tomas Tulpe"
TITLE "Wie War's Mit Senf?"
FILE "Tomas Tulpe - Wie War's Mit Senf.flac" WAVE
  TRACK 01 AUDIO
    TITLE " Ich Rasta Aus!"
    PERFORMER "Tomas Tulpe"
    INDEX 01 00:00:00
  TRACK 02 AUDIO
    TITLE "Schmier Mir Eine Schnitte"
    PERFORMER "Tomas Tulpe"
    INDEX 00 03:10:44
    INDEX 01 03:12:44
  TRACK 03 AUDIO
    TITLE " Issat Tach Issat Nacht"
    PERFORMER "Tomas Tulpe"
    INDEX 00 06:00:62
    INDEX 01 06:02:62
  TRACK 04 AUDIO
    TITLE "Knete Im Kopf"
    PERFORMER "Tomas Tulpe"
    INDEX 00 08:32:62
    INDEX 01 08:34:62
  TRACK 05 AUDIO
    TITLE "Eis "
    PERFORMER "Tomas Tulpe"
    INDEX 00 11:47:48
    INDEX 01 11:49:48
  TRACK 06 AUDIO
    TITLE "Hausverbot Im Spati"
    PERFORMER "Tomas Tulpe"
    INDEX 00 14:30:59
    INDEX 01 14:32:59
  TRACK 07 AUDIO
    TITLE "Tarzan (Eine Traume)"
    PERFORMER "Tomas Tulpe"
    INDEX 00 18:21:41
    INDEX 01 18:23:41
  TRACK 08 AUDIO
    TITLE "Fett Schwimmt Oben"
    PERFORMER "Tomas Tulpe"
    INDEX 00 20:59:22
    INDEX 01 21:01:22
  TRACK 09 AUDIO
    TITLE "Hamburger Schule"
    PERFORMER "Tomas Tulpe"
    INDEX 00 24:16:65
    INDEX 01 24:18:65
  TRACK 10 AUDIO
    TITLE "Wir Trinken Wenig"
    PERFORMER "Tomas Tulpe"
    INDEX 00 25:33:09
    INDEX 01 25:35:09
  TRACK 11 AUDIO
    TITLE "Madchen Ohne BH"
    PERFORMER "Tomas Tulpe"
    INDEX 00 27:52:24
    INDEX 01 27:54:24
  TRACK 12 AUDIO
    TITLE "Nimm Die Hande Aus Den Taschen Mein Junge Das Sieht Doch Nicht Aus"
    PERFORMER "Tomas Tulpe"
    INDEX 00 31:47:48
    INDEX 01 31:49:48
  TRACK 13 AUDIO
    TITLE "F***en Sagt Man Nicht"
    PERFORMER "Tomas Tulpe"
    INDEX 00 33:50:42
    INDEX 01 33:52:42
  TRACK 14 AUDIO
    TITLE "Willst Du Mit Mir Gehn?"
    PERFORMER "Tomas Tulpe"
    INDEX 00 36:14:36
    INDEX 01 36:16:36
  TRACK 15 AUDIO
    TITLE "Handball-Melodie"
    PERFORMER "Tomas Tulpe"
    INDEX 00 39:50:72
    INDEX 01 39:52:72
Правила, инструкции, FAQ!!!
Торрент  Добавлен [26 июн 2020, 17:51] Скачать торрент Магнет ссылка
Скачать торрент
[ Размер 11.96 КБ / Просмотров 10 ]

Статус
Проверен 
 
Размер  288.87 МБ
Приватный: Нет (DHT включён)
.torrent скачан  0
 


     Отправить личное сообщение
   
Страница 1 из 1
Показать сообщения за:  Поле сортировки  
Начать новую тему Ответить на тему


Сейчас этот форум просматривают: нет зарегистрированных пользователей и гости: 0


Вы не можете начинать темы
Вы не можете отвечать на сообщения
Вы не можете редактировать свои сообщения
Вы не можете удалять свои сообщения
Вы не можете добавлять вложения

Перейти:  
cron