Начать новую тему Ответить на тему
Статистика раздачи
Размер: 485.27 МБ | Добавлен: 26 июн 2020, 17:15 | Скачали: 0
Сидеров: 1  [0 байт/сек]    Личеров: 0  [0 байт/сек]
Пред. тема | След. тема 

Автор
Сообщение

СообщениеДобавлено: 26 июн 2020, 17:15 

Ответить с цитатой 

The Crystalline Effect / Industrial Re-Evolution
Жанр: EBM / synth pop
Страна-производитель диска: Japan
Год издания: 2011
Издатель (лейбл): DeathWatch Asia
Номер по каталогу: DWA 149
Аудиокодек: FLAC (*.flac)
Тип рипа: image+.cue
Битрейт аудио: lossless
Продолжительность: 1:06:47.47
Источник (релизер): Рип с оригинала
Наличие сканов в содержимом раздачи: да
Треклист:
01. Ada Makes The Machines Sing [3:20]
02. No Longer Evolving [3:52]
03. Anechoic Lock [4:22]
04. How I Get Out (Cellmod remix) [6:49]
05. Blue Sea (Dave Foreman remix) [5:35]
06. Broken (Studio-X Hard Electro remix) [4:09]
07. Ada Makes The Machines Sing (Touch My Circuit remix by DYM) [4:36]
08. No Longer Evolving (Soman remix) [4:48]
09. Do Not Open (The Synthetic Dream Foundation remix) [5:43]
10. How I Get Out (Fractured remix) [4:34]
11. As Long As You Need [5:04]
12. Core Reaction [5:01]
13. Broken [4:21]
14. Ada Makes The Machines Sing (Extended Instrumental) [4:33]
Код:
Exact Audio Copy V1.0 beta 1 from 15. November 2010
Отчёт EAC об извлечении, выполненном 28. ноября 2011, 23:10
The Crystalline Effect / Industrial Re-Evolution
Дисковод: _NEC    DVD_RW ND-3520A   Adapter: 0  ID: 1
Режим чтения                 : Достоверность
Использование точного потока : Да
Отключение кэша аудио        : Да
Использование указателей C2  : Нет
Коррекция смещения при чтении                     : 48
Способность читать области Lead-in и Lead-out     : Нет
Заполнение пропущенных сэмплов тишиной            : Да
Удаление блоков с тишиной в начале и конце        : Нет
При вычислениях CRC использовались нулевые сэмплы : Да
Интерфейс                                         : Установленный внешний ASPI-интерфейс
Выходной формат          : Пользовательский кодировщик
Выбранный битрейт        : 1024 kBit/s
Качество                 : Высокий
Добавление ID3-тэга      : Нет
Утилита сжатия           : D:\Program Files\Exact Audio Copy\FLAC\FLAC.EXE
Дополнительные параметры : -6 -V -T "ARTIST=%a" -T "TITLE=%t" -T "ALBUM=%g" -T "DATE=%y" -T "TRACKNUMBER=%n" -T "GENRE=%m" -T "COMMENT=%e" %j--picture="%i"%j %s -o %d
TOC извлечённого CD
     Трек |   Старт  | Длительность | Начальный сектор | Конечный сектор
    ---------------------------------------------------------------------
       1  |  0:00.00 |    3:20.02   |           0      |      15001
       2  |  3:20.02 |    3:51.72   |       15002      |      32398
       3  |  7:11.74 |    4:21.53   |       32399      |      52026
       4  | 11:33.52 |    6:49.07   |       52027      |      82708
       5  | 18:22.59 |    5:34.67   |       82709      |     107825
       6  | 23:57.51 |    4:09.37   |      107826      |     126537
       7  | 28:07.13 |    4:36.28   |      126538      |     147265
       8  | 32:43.41 |    4:48.28   |      147266      |     168893
       9  | 37:31.69 |    5:42.60   |      168894      |     194603
      10  | 43:14.54 |    4:33.55   |      194604      |     215133
      11  | 47:48.34 |    5:03.53   |      215134      |     237911
      12  | 52:52.12 |    5:01.11   |      237912      |     260497
      13  | 57:53.23 |    4:21.23   |      260498      |     280095
      14  | 62:14.46 |    4:33.01   |      280096      |     300571
Характеристики диапазона извлечения и сообщения об ошибках
Выбранный диапазон
     Имя файла O:\На трекер\The Crystalline Effect - Industrial Re-Evolution.wav
     Пиковый уровень 100.0 %
0.1 X
     Качество диапазона 100.0 %
     CRC теста B27B8BC2
     CRC копии B27B8BC2
     Копирование... OK
Ошибок не произошло
AccurateRip: сводка
Трек  1  нет в базе данных
Трек  2  нет в базе данных
Трек  3  нет в базе данных
Трек  4  нет в базе данных
Трек  5  нет в базе данных
Трек  6  нет в базе данных
Трек  7  нет в базе данных
Трек  8  нет в базе данных
Трек  9  нет в базе данных
Трек 10  нет в базе данных
Трек 11  нет в базе данных
Трек 12  нет в базе данных
Трек 13  нет в базе данных
Трек 14  нет в базе данных
Ни одного трека нет в базе AccurateRip
Конец отчёта
====  0DEAB79AE7D9B3E4908065FEB83C1B54B0471F2EF66DDB518396A00E5DC17345 ====
Правила, инструкции, FAQ!!!
Торрент  Добавлен [26 июн 2020, 17:15] Скачать торрент Магнет ссылка
Скачать торрент
[ Размер 20.2 КБ / Просмотров 7 ]

Статус
Проверен 
 
Размер  485.27 МБ
Приватный: Нет (DHT включён)
.torrent скачан  0
 


     Отправить личное сообщение
   
Страница 1 из 1
Показать сообщения за:  Поле сортировки  
Начать новую тему Ответить на тему


Сейчас этот форум просматривают: нет зарегистрированных пользователей и гости: 0


Вы не можете начинать темы
Вы не можете отвечать на сообщения
Вы не можете редактировать свои сообщения
Вы не можете удалять свои сообщения
Вы не можете добавлять вложения

Перейти:  
cron