Начать новую тему Ответить на тему
Статистика раздачи
Размер: 383.95 МБ | Добавлен: 26 июн 2020, 19:04 | Скачали: 0
Сидеров: 0  [0 байт/сек]    Личеров: 0  [0 байт/сек]
Пред. тема | След. тема 

Автор
Сообщение

СообщениеДобавлено: 26 июн 2020, 19:04 

Ответить с цитатой 

System Syn - Strangers
Жанр: EBM / synth pop
Год выпуска диска: 2010
Производитель диска: (Metropolis Records, USA)
Аудио кодек: FLAC
Тип рипа: image+.cue
Битрейт аудио: lossless
Продолжительность: 48:10.48
Трэклист:
01. The Fall [3:50]
02. Chemical [3:31]
03. The Inconvenient [4:00]
04. God And Country [5:18]
05. Rex Mortuus Est [3:55]
06. Drone [4:00]
07. Here's To You [4:37]
08. Strangers [4:40]
09. A Better Day Tomorrow [5:05]
10. Hospitals [4:18]
11. Curtain Call [4:57]
Источник: Физический носитель
Код:
Exact Audio Copy V0.99 prebeta 5 from 4. May 2009
Отчёт EAC об извлечении, выполненном 29. июня 2010, 17:45
System Syn / Strangers
Дисковод: Optiarc DVD RW AD-7173A   Adapter: 0  ID: 0
Режим чтения                 : Достоверность
Использование точного потока : Да
Отключение кэша аудио        : Да
Использование указателей C2  : Нет
Коррекция смещения при чтении                     : 48
Способность читать области Lead-in и Lead-out     : Нет
Заполнение пропущенных сэмплов тишиной            : Да
Удаление блоков с тишиной в начале и конце        : Нет
При вычислениях CRC использовались нулевые сэмплы : Да
Интерфейс                                         : Установленный внешний ASPI-интерфейс
Выходной формат          : Пользовательский кодировщик
Выбранный битрейт        : 1024 kBit/s
Качество                 : Высокий
Добавление ID3-тэга      : Нет
Утилита сжатия           : C:\Program Files\Exact Audio Copy\Flac\flac.exe
Дополнительные параметры : -6 -V -T "ARTIST=%a" -T "TITLE=%t" -T "ALBUM=%g" -T "DATE=%y" -T "TRACKNUMBER=%n" -T "GENRE=%m" -T "COMMENT=%e" %s -o %d
TOC извлечённого CD
     Трек |   Старт  | Длительность | Начальный сектор | Конечный сектор
    ---------------------------------------------------------------------
       1  |  0:00.00 |    3:50.03   |           0      |      17252
       2  |  3:50.03 |    3:31.07   |       17253      |      33084
       3  |  7:21.10 |    4:00.15   |       33085      |      51099
       4  | 11:21.25 |    5:17.63   |       51100      |      74937
       5  | 16:39.13 |    3:55.05   |       74938      |      92567
       6  | 20:34.18 |    4:00.00   |       92568      |     110567
       7  | 24:34.18 |    4:36.66   |      110568      |     131333
       8  | 29:11.09 |    4:39.39   |      131334      |     152297
       9  | 33:50.48 |    5:04.68   |      152298      |     175165
      10  | 38:55.41 |    4:18.18   |      175166      |     194533
      11  | 43:13.59 |    4:56.64   |      194534      |     216797
Характеристики диапазона извлечения и сообщения об ошибках
Выбранный диапазон
     Имя файла H:\СКАЧКА\FLAC\System Syn - Strangers.wav
     Пиковый уровень 98.8 %
     Качество диапазона 99.9 %
     CRC теста 80693FC4
     CRC копии 80693FC4
     Копирование... OK
Ошибок не произошло
AccurateRip: сводка
Трек  1  нет в базе данных
Трек  2  нет в базе данных
Трек  3  нет в базе данных
Трек  4  нет в базе данных
Трек  5  нет в базе данных
Трек  6  нет в базе данных
Трек  7  нет в базе данных
Трек  8  нет в базе данных
Трек  9  нет в базе данных
Трек 10  нет в базе данных
Трек 11  нет в базе данных
Ни одного трека нет в базе AccurateRip
Конец отчёта
Хочешь скачать, но не можешь из-за отсутствия сидов - пиши в личку!
Правила, инструкции, FAQ!!!
Торрент  Добавлен [26 июн 2020, 19:04] Скачать торрент Магнет ссылка
Скачать торрент
[ Размер 16 КБ / Просмотров 4 ]

Статус
Проверен 
 
Размер  383.95 МБ
Приватный: Нет (DHT включён)
.torrent скачан  0
 


     Отправить личное сообщение
   
Страница 1 из 1
Показать сообщения за:  Поле сортировки  
Начать новую тему Ответить на тему


Сейчас этот форум просматривают: нет зарегистрированных пользователей и гости: 0


Вы не можете начинать темы
Вы не можете отвечать на сообщения
Вы не можете редактировать свои сообщения
Вы не можете удалять свои сообщения
Вы не можете добавлять вложения

Перейти:  
cron