Начать новую тему Ответить на тему
Статистика раздачи
Размер: 136.42 МБ | Добавлен: 26 июн 2020, 17:55 | Скачали: 0
Сидеров: 0  [0 байт/сек]    Личеров: 0  [0 байт/сек]
Пред. тема | След. тема 

Автор
Сообщение

СообщениеДобавлено: 26 июн 2020, 17:55 

Ответить с цитатой 

Static Icon / It's A Lifestyle [Single]
Жанр: EBM / synth pop
Страна-производитель диска: Germany
Год издания диска: 1996
Издатель (лейбл): Machinery Records
Номер по каталогу: МА 0068-3
Аудио кодек: FLAC (*.flac)
Тип рипа: image+.cue
Битрейт аудио: lossless
Продолжительность: 18:27.17
Источник (релизер): Физический носитель
Наличие сканов в содержимом раздачи: да
Треклист:
1. It's A Lifestyle (Single Edit) [3:43]
2. Come To Me (Delicious Pain) [4:16]
3. Institution (Finally Free) [4:31]
4. It's A Lifestyle (DJ Candyman) [5:58]
Код:
Exact Audio Copy V0.99 prebeta 5 from 4. May 2009
Отчёт EAC об извлечении, выполненном 28. сентября 2010, 16:28
Static Icon / It's A Lifestyle
Дисковод: Optiarc DVD RW AD-7173A   Adapter: 0  ID: 0
Режим чтения                 : Достоверность
Использование точного потока : Да
Отключение кэша аудио        : Да
Использование указателей C2  : Нет
Коррекция смещения при чтении                     : 48
Способность читать области Lead-in и Lead-out     : Нет
Заполнение пропущенных сэмплов тишиной            : Да
Удаление блоков с тишиной в начале и конце        : Нет
При вычислениях CRC использовались нулевые сэмплы : Да
Интерфейс                                         : Установленный внешний ASPI-интерфейс
Выходной формат          : Пользовательский кодировщик
Выбранный битрейт        : 1024 kBit/s
Качество                 : Высокий
Добавление ID3-тэга      : Нет
Утилита сжатия           : C:\Program Files\Exact Audio Copy\flac.exe
Дополнительные параметры : -6 -V -T "ARTIST=%a" -T "TITLE=%t" -T "ALBUM=%g" -T "DATE=%y" -T "TRACKNUMBER=%n" -T "GENRE=%m" -T "COMMENT=%e" %s -o %d
TOC извлечённого CD
     Трек |   Старт  | Длительность | Начальный сектор | Конечный сектор
    ---------------------------------------------------------------------
       1  |  0:00.00 |    3:43.22   |           0      |      16746
       2  |  3:43.22 |    4:15.40   |       16747      |      35911
       3  |  7:58.62 |    4:30.53   |       35912      |      56214
       4  | 12:29.40 |    5:57.52   |       56215      |      83041
Характеристики диапазона извлечения и сообщения об ошибках
Выбранный диапазон
     Имя файла H:\СКАЧКА\FLAC\1 TORRENT\Static Icon - It's A Lifestyle.wav
     Пиковый уровень 97.7 %
     Качество диапазона 100.0 %
     CRC теста A17180B8
     CRC копии A17180B8
     Копирование... OK
Ошибок не произошло
AccurateRip: сводка
Трек  1  нет в базе данных
Трек  2  нет в базе данных
Трек  3  нет в базе данных
Трек  4  нет в базе данных
Ни одного трека нет в базе AccurateRip
Конец отчёта
Правила, инструкции, FAQ!!!
Торрент  Добавлен [26 июн 2020, 17:55] Скачать торрент Магнет ссылка
Скачать торрент
[ Размер 11.52 КБ / Просмотров 10 ]

Статус
Проверен 
 
Размер  136.42 МБ
Приватный: Нет (DHT включён)
.torrent скачан  0
 


     Отправить личное сообщение
   
Страница 1 из 1
Показать сообщения за:  Поле сортировки  
Начать новую тему Ответить на тему


Сейчас этот форум просматривают: нет зарегистрированных пользователей и гости: 0


Вы не можете начинать темы
Вы не можете отвечать на сообщения
Вы не можете редактировать свои сообщения
Вы не можете удалять свои сообщения
Вы не можете добавлять вложения

Перейти:  
cron