Начать новую тему Ответить на тему
Статистика раздачи
Размер: 467.41 МБ | Добавлен: 26 июн 2020, 17:17 | Скачали: 0
Сидеров: 0  [0 байт/сек]    Личеров: 0  [0 байт/сек]
Пред. тема | След. тема 

Автор
Сообщение

СообщениеДобавлено: 26 июн 2020, 17:17 

Ответить с цитатой 

Sero.Overdose - Serotonin
Жанр: EBM synth pop
Год выпуска диска: 2002
Производитель диска: (Matrix Cube / Trisol, Germany)
Аудио кодек: FLAC
Тип рипа: image+.cue
Битрейт аудио: lossless
Продолжительность: 1:09:16.45
Трэклист:
1-Intro [02:15.01]
2-For You [05:05.31]
3-Greed [04:37.21]
4-To Late [04:28.38]
5-Einsamkeit [04:59.08]
6-Broken Mind [04:32.17]
7-My Pain [05:09.14]
8-In Your Eyes [04:25.12]
9-Feel [04:00.10]
10-Serotonin [06:24.18]
11-Lüg Nicht [04:10.37]
12-To Late (Radio Edit) [03:42.05]
13-In Your Eyes (remix by Lohen & Lomax) [06:24.11]
14. Serotonin (Fucked by G.o.d. mix by V2A) [03:14.74]
15. Greed (Fear In Motion mix by Chris L. / Dance Or Die) [05:48.48]
Код:
Exact Audio Copy V0.99 prebeta 4 from 23. January 2008
Отчёт EAC об извлечении, выполненном 21. октября 2008, 9:55
Sero.Overdose / Serotonin
Дисковод: Optiarc DVD RW AD-7173A   Adapter: 0  ID: 0
Режим чтения                 : Достоверность
Использование точного потока : Да
Отключение кэша аудио        : Да
Использование указателей C2  : Нет
Коррекция смещения при чтении                     : 48
Способность читать области Lead-in и Lead-out     : Нет
Заполнение пропущенных сэмплов тишиной            : Да
Удаление блоков с тишиной в начале и конце        : Нет
При вычислениях CRC использовались нулевые сэмплы : Да
Интерфейс                                         : Встроенный Win32-интерфейс для Win NT/2000
Выходной формат          : Пользовательский кодировщик
Выбранный битрейт        : 1024 kBit/s
Качество                 : Высокий
Добавление ID3-тэга      : Нет
Утилита сжатия           : C:\Program Files\Exact Audio Copy\Flac\flac.exe
Дополнительные параметры : -6 -V -T "ARTIST=%a" -T "TITLE=%t" -T "ALBUM=%g" -T "DATE=%y" -T "TRACKNUMBER=%n" -T "GENRE=%m" -T "COMMENT=%e" %s -o %d
TOC извлечённого CD
     Трек |   Старт  | Длительность | Начальный сектор | Конечный сектор
    ---------------------------------------------------------------------
       1  |  0:00.00 |    2:15.01   |           0      |      10125
       2  |  2:15.01 |    5:05.31   |       10126      |      33031
       3  |  7:20.32 |    4:37.21   |       33032      |      53827
       4  | 11:57.53 |    4:28.38   |       53828      |      73965
       5  | 16:26.16 |    4:59.08   |       73966      |      96398
       6  | 21:25.24 |    4:32.17   |       96399      |     116815
       7  | 25:57.41 |    5:09.14   |      116816      |     140004
       8  | 31:06.55 |    4:25.12   |      140005      |     159891
       9  | 35:31.67 |    4:00.10   |      159892      |     177901
      10  | 39:32.02 |    6:24.18   |      177902      |     206719
      11  | 45:56.20 |    4:10.37   |      206720      |     225506
      12  | 50:06.57 |    3:42.05   |      225507      |     242161
      13  | 53:48.62 |    6:24.11   |      242162      |     270972
      14  | 60:12.73 |    3:14.74   |      270973      |     285596
      15  | 63:27.72 |    5:48.48   |      285597      |     311744
Характеристики диапазона извлечения и сообщения об ошибках
Выбранный диапазон
     Имя файла G:\СКАЧКА\FLAC\Sero.Overdose - Serotonin.wav
     Пиковый уровень 98.8 %
     Качество диапазона 100.0 %
     CRC теста 359F1D41
     CRC копии 359F1D41
     Копирование... OK
Ошибок не произошло
Конец отчёта
Правила, инструкции, FAQ!!!
Торрент  Добавлен [26 июн 2020, 17:17] Скачать торрент Магнет ссылка
Скачать торрент
[ Размер 18.92 КБ / Просмотров 4 ]

Статус
Проверен 
 
Размер  467.41 МБ
Приватный: Нет (DHT включён)
.torrent скачан  0
 


     Отправить личное сообщение
   
Страница 1 из 1
Показать сообщения за:  Поле сортировки  
Начать новую тему Ответить на тему


Сейчас этот форум просматривают: нет зарегистрированных пользователей и гости: 0


Вы не можете начинать темы
Вы не можете отвечать на сообщения
Вы не можете редактировать свои сообщения
Вы не можете удалять свои сообщения
Вы не можете добавлять вложения

Перейти:  
cron