Начать новую тему Ответить на тему
Статистика раздачи
Размер: 146.44 МБ | Добавлен: 26 июн 2020, 16:55 | Скачали: 0
Сидеров: 0  [0 байт/сек]    Личеров: 0  [0 байт/сек]
Пред. тема | След. тема 

Автор
Сообщение

СообщениеДобавлено: 26 июн 2020, 16:55 

Ответить с цитатой 

Scheinkraft / Traumzerstörer
Жанр: EBM, Synth-pop
Страна-производитель диска: Germany
Год издания диска: 2007
Издатель (лейбл): Ebene 1
Номер по каталогу: E1R 312004-2
Формат: CD, EP
Аудиокодек: FLAC (*.flac)
Тип рипа: image+.cue
Битрейт аудио: lossless
Продолжительность: 17:03
Источник (релизер): Физический носитель (Собственный рип с оригинала)
Наличие сканов в содержимом раздачи: да
Треклист:
01. Traumzerstörer [3:43]
02. Abschied [4:10]
03. Seelenkreuzer [4:29]
04. Kein Traum [4:41]
Код:
Exact Audio Copy V1.0 beta 3 from 29. August 2011
EAC extraction logfile from 12. March 2012, 11:54
Scheinkraft / Traumzerstörer
Used drive  : PLEXTOR BDDVDR PX-B320SA   Adapter: 0  ID: 2
Read mode               : Secure
Utilize accurate stream : Yes
Defeat audio cache      : Yes
Make use of C2 pointers : No
Read offset correction                      : 6
Overread into Lead-In and Lead-Out          : No
Fill up missing offset samples with silence : Yes
Delete leading and trailing silent blocks   : No
Null samples used in CRC calculations       : Yes
Used interface                              : Native Win32 interface for Win NT & 2000
Used output format              : User Defined Encoder
Selected bitrate                : 128 kBit/s
Quality                         : High
Add ID3 tag                     : No
Command line compressor         : C:\Program Files (x86)\FLAC\flac.exe
Additional command line options : -V -8 -T "Date=%year%" -T "Genre=%genre%" %source%
TOC of the extracted CD
     Track |   Start  |  Length  | Start sector | End sector
    ---------------------------------------------------------
        1  |  0:00.00 |  3:43.29 |         0    |    16753
        2  |  3:43.29 |  4:09.66 |     16754    |    35494
        3  |  7:53.20 |  4:29.03 |     35495    |    55672
        4  | 12:22.23 |  4:40.71 |     55673    |    76743
Range status and errors
Selected range
     Filename D:\Scheinkraft - Traumzerstorer EP (2007)\Scheinkraft - Traumzerstorer.wav
     Peak level 97.5 %
     Extraction speed 5.7 X
     Range quality 100.0 %
     Test CRC 0A64F6ED
     Copy CRC 0A64F6ED
     Copy OK
No errors occurred
AccurateRip summary
Track  1  not present in database
Track  2  not present in database
Track  3  not present in database
Track  4  not present in database
None of the tracks are present in the AccurateRip database
End of status report
==== Log checksum C97C27C6A6B4C21EE196228133785CB24950CC9627618835A4C29381B9AC3932 ====
Правила, инструкции, FAQ!!!
Торрент  Добавлен [26 июн 2020, 16:55] Скачать торрент Магнет ссылка
Скачать торрент
[ Размер 12.34 КБ / Просмотров 7 ]

Статус
Проверен 
 
Размер  146.44 МБ
Приватный: Нет (DHT включён)
.torrent скачан  0
 


     Отправить личное сообщение
   
Страница 1 из 1
Показать сообщения за:  Поле сортировки  
Начать новую тему Ответить на тему


Сейчас этот форум просматривают: нет зарегистрированных пользователей и гости: 0


Вы не можете начинать темы
Вы не можете отвечать на сообщения
Вы не можете редактировать свои сообщения
Вы не можете удалять свои сообщения
Вы не можете добавлять вложения

Перейти:  
cron