Начать новую тему Ответить на тему
Статистика раздачи
Размер: 419.96 МБ | Добавлен: 26 июн 2020, 20:18 | Скачали: 0
Сидеров: 0  [0 байт/сек]    Личеров: 0  [0 байт/сек]
Пред. тема | След. тема 

Автор
Сообщение

СообщениеДобавлено: 26 июн 2020, 20:18 

Ответить с цитатой 

Rotersand - Random Is Resistance [Digipak Edition]
Жанр: EBM, Synth-pop
Год выпуска диска: 2009
Производитель диска: Germany
Аудио кодек: FLAC
Тип рипа: image+.cue
Битрейт аудио: lossless
Продолжительность: 00:56:16
Трэклист:
01. Yes We Care
02. Bastards Screaming
03. Waiting To Be Born
04. Speak To Me
05. We Will Kill Them All
06. First Time
07. Beneath The Stars
08. If You Don't Stop It...
09. War On Error
10. A Number And A Name
11. Gothic Paradise
12. A Million Worlds To Lose
Код:
Exact Audio Copy V0.99 prebeta 5 from 4. May 2009
Отчёт EAC об извлечении, выполненном 24. декабря 2009, 22:13
Rotersand / Random Is Resistance
Дисковод: Optiarc DVD RW AD-7201S   Adapter: 2  ID: 1
Режим чтения                 : Достоверность
Использование точного потока : Да
Отключение кэша аудио        : Да
Использование указателей C2  : Нет
Коррекция смещения при чтении                     : 48
Способность читать области Lead-in и Lead-out     : Нет
Заполнение пропущенных сэмплов тишиной            : Да
Удаление блоков с тишиной в начале и конце        : Нет
При вычислениях CRC использовались нулевые сэмплы : Да
Интерфейс                                         : Встроенный Win32-интерфейс для Win NT/2000
Выходной формат : Внутренние WAV-операции
Формат сэмплов  : 44.100 Гц; 16 бит; стерео
TOC извлечённого CD
     Трек |   Старт  | Длительность | Начальный сектор | Конечный сектор
    ---------------------------------------------------------------------
       1  |  0:00.00 |    2:15.34   |           0      |      10158
       2  |  2:15.34 |    4:37.43   |       10159      |      30976
       3  |  6:53.02 |    5:09.28   |       30977      |      54179
       4  | 12:02.30 |    6:15.01   |       54180      |      82305
       5  | 18:17.31 |    3:50.73   |       82306      |      99628
       6  | 22:08.29 |    5:51.18   |       99629      |     125971
       7  | 27:59.47 |    4:12.00   |      125972      |     144871
       8  | 32:11.47 |    4:54.41   |      144872      |     166962
       9  | 37:06.13 |    4:55.14   |      166963      |     189101
      10  | 42:01.27 |    4:26.54   |      189102      |     209105
      11  | 46:28.06 |    4:43.50   |      209106      |     230380
      12  | 51:11.56 |    5:04.59   |      230381      |     253239
Характеристики диапазона извлечения и сообщения об ошибках
Выбранный диапазон
     Имя файла D:\Раздачи\Rotersand - Random Is Resistance\Rotersand - Random Is Resistance.wav
     Пиковый уровень 100.0 %
     Качество диапазона 100.0 %
     CRC теста C3F0145B
     CRC копии C3F0145B
     Копирование... OK
Ошибок не произошло
Конец отчёта
Код:
Started at: четверг, 24. 12. 2009. - 22:43.12
1 file found
1 -===- D:\Раздачи\Rotersand - Random Is Resistance\Rotersand - Random Is Resistance.flac
  Extracted successfully
  Conclusion: this track is CDDA with probability 100%
  Tempfile successfully deleted.
Finished at: четверг, 24. 12. 2009. - 22:49.38 (operation time: 0:06.26)
Label:[Trisol] Music Group GmbH
Catalog#:TRI 375 CD
Format:CD, Album, Digipak
Country:Germany
Released:23 Oct 2009
Genre:Electronic
Style:EBM, Synth-pop
HQ Scans
Правила, инструкции, FAQ!!!
Торрент  Добавлен [26 июн 2020, 20:18] Скачать торрент Магнет ссылка
Скачать торрент
[ Размер 17.19 КБ / Просмотров 3 ]

Статус
Проверен 
 
Размер  419.96 МБ
Приватный: Нет (DHT включён)
.torrent скачан  0
 


     Отправить личное сообщение
   
Страница 1 из 1
Показать сообщения за:  Поле сортировки  
Начать новую тему Ответить на тему


Сейчас этот форум просматривают: нет зарегистрированных пользователей и гости: 0


Вы не можете начинать темы
Вы не можете отвечать на сообщения
Вы не можете редактировать свои сообщения
Вы не можете удалять свои сообщения
Вы не можете добавлять вложения

Перейти:  
cron