Начать новую тему Ответить на тему
Статистика раздачи
Размер: 480.4 МБ | Добавлен: 26 июн 2020, 19:46 | Скачали: 0
Сидеров: 0  [0 байт/сек]    Личеров: 0  [0 байт/сек]
Пред. тема | След. тема 

Автор
Сообщение

СообщениеДобавлено: 26 июн 2020, 19:46 

Ответить с цитатой 

Restricted Area / Wear & Tear EP
Жанр: EBM, Synth-pop, Electro
Страна-производитель диска: Italy
Год издания: 2012
Издатель (лейбл): EK Product
Номер по каталогу: EKPMCD003
Формат: CD, EP, Enhanced, Digipak
Аудиокодек: FLAC (*.flac)
Тип рипа: image+.cue
Битрейт аудио: lossless
Продолжительность: 0:35:36.64
Источник (релизер): Физический носитель (Собственный рип с оригинала)
Наличие сканов в содержимом раздачи: да
Треклист:
01. The End [2:29]
02. Slacker (Drönar Mix) [3:36]
03. Weapon (Floor Mix) [3:01]
04. Friend [4:27]
05. M.O.L.5 [3:12]
06. Greed [2:15]
07. Suicide [2:12]
08. The End (Cogwheel Mix) [3:42]
09. Slacker (Drönar Floor Mix) [4:35]
10. Weapon (Analogue Version) [2:37]
11. When It Comes (Album Version) [3:32]
+ Video:
12. Weapon (Video) [3:16]
13. When It Comes (Video) [4:07]
Код:
Exact Audio Copy V1.0 beta 3 from 29. August 2011
EAC extraction logfile from 20. June 2012, 21:37
Restricted Area / Wear & Tear EP
Used drive  : PLEXTOR BDDVDR PX-B320SA   Adapter: 3  ID: 1
Read mode               : Secure
Utilize accurate stream : Yes
Defeat audio cache      : Yes
Make use of C2 pointers : No
Read offset correction                      : 6
Overread into Lead-In and Lead-Out          : No
Fill up missing offset samples with silence : Yes
Delete leading and trailing silent blocks   : No
Null samples used in CRC calculations       : Yes
Used interface                              : Installed external ASPI interface
Used output format              : User Defined Encoder
Selected bitrate                : 128 kBit/s
Quality                         : High
Add ID3 tag                     : No
Command line compressor         : C:\Program Files (x86)\FLAC\flac.exe
Additional command line options : -V -8 -T "Date=%year%" -T "Genre=%genre%" %source%
TOC of the extracted CD
     Track |   Start  |  Length  | Start sector | End sector
    ---------------------------------------------------------
        1  |  0:00.00 |  2:28.31 |         0    |    11130
        2  |  2:28.31 |  3:36.17 |     11131    |    27347
        3  |  6:04.48 |  3:00.46 |     27348    |    40893
        4  |  9:05.19 |  4:27.07 |     40894    |    60925
        5  | 13:32.26 |  3:11.66 |     60926    |    75316
        6  | 16:44.17 |  2:15.11 |     75317    |    85452
        7  | 18:59.28 |  2:12.11 |     85453    |    95363
        8  | 21:11.39 |  3:42.05 |     95364    |   112018
        9  | 24:53.44 |  4:34.43 |    112019    |   132611
       10  | 29:28.12 |  2:36.44 |    132612    |   144355
       11  | 32:04.56 |  3:32.08 |    144356    |   160263
       12  | 38:08.64 | 23:14.65 |    171664    |   276278
Range status and errors
Selected range
     Filename D:\Restricted Area - Wear & Tear EP (2012)\Restricted Area - Wear & Tear EP.wav
     Peak level 99.4 %
     Extraction speed 6.9 X
     Range quality 100.0 %
     Test CRC 10522017
     Copy CRC 10522017
     Copy OK
No errors occurred
AccurateRip summary
Track  1  not present in database
Track  2  not present in database
Track  3  not present in database
Track  4  not present in database
Track  5  not present in database
Track  6  not present in database
Track  7  not present in database
Track  8  not present in database
Track  9  not present in database
Track 10  not present in database
Track 11  not present in database
None of the tracks are present in the AccurateRip database
End of status report
==== Log checksum 82F70561582DBD0407D055FB72DB6D7A91306B0366E936D5C5C63E0B952F61BB ====
Код:
General
Complete name                    : F:\Weapon (Video).mp4
Format                           : MPEG-4
Format profile                   : Base Media / Version 2
Codec ID                         : mp42
File size                        : 89.9 MiB
Duration                         : 3mn 15s
Overall bit rate mode            : Variable
Overall bit rate                 : 3 852 Kbps
Encoded date                     : UTC 2011-05-29 14:27:52
Tagged date                      : UTC 2011-05-29 14:27:52
В©TIM                             : 00;00;00;00
Video
ID                               : 1
Format                           : AVC
Format/Info                      : Advanced Video Codec
Format profile                   : Main@L3.1
Format settings, CABAC           : Yes
Format settings, ReFrames        : 3 frames
Format settings, GOP             : M=4, N=30
Codec ID                         : avc1
Codec ID/Info                    : Advanced Video Coding
Duration                         : 3mn 15s
Bit rate                         : 3 594 Kbps
Width                            : 1 280 pixels
Height                           : 720 pixels
Display aspect ratio             : 16:9
Frame rate mode                  : Constant
Frame rate                       : 29.970 fps
Standard                         : NTSC
Color space                      : YUV
Chroma subsampling               : 4:2:0
Bit depth                        : 8 bits
Scan type                        : Progressive
Bits/(Pixel*Frame)               : 0.130
Stream size                      : 83.9 MiB (93%)
Language                         : English
Encoded date                     : UTC 2011-05-29 14:27:52
Tagged date                      : UTC 2011-05-29 14:27:52
Audio
ID                               : 2
Format                           : AAC
Format/Info                      : Advanced Audio Codec
Format profile                   : LC
Codec ID                         : 40
Duration                         : 3mn 15s
Bit rate mode                    : Variable
Bit rate                         : 253 Kbps
Maximum bit rate                 : 366 Kbps
Channel(s)                       : 2 channels
Channel positions                : Front: L R
Sampling rate                    : 48.0 KHz
Compression mode                 : Lossy
Stream size                      : 5.91 MiB (7%)
Language                         : English
Encoded date                     : UTC 2011-05-29 14:27:52
Tagged date                      : UTC 2011-05-29 14:27:52
Material_Duration                : 195883
Material_StreamSize              : 6203972
Код:
General
Complete name                    : F:\When it Comes (Video).mp4
Format                           : MPEG-4
Format profile                   : Base Media / Version 2
Codec ID                         : mp42
File size                        : 114 MiB
Duration                         : 4mn 7s
Overall bit rate mode            : Variable
Overall bit rate                 : 3 867 Kbps
Encoded date                     : UTC 2011-10-20 15:55:07
Tagged date                      : UTC 2011-10-20 15:55:07
В©TIM                             : 00;00;00;00
Video
ID                               : 1
Format                           : AVC
Format/Info                      : Advanced Video Codec
Format profile                   : Main@L3.1
Format settings, CABAC           : Yes
Format settings, ReFrames        : 3 frames
Codec ID                         : avc1
Codec ID/Info                    : Advanced Video Coding
Duration                         : 4mn 7s
Bit rate                         : 3 609 Kbps
Width                            : 1 280 pixels
Height                           : 720 pixels
Display aspect ratio             : 16:9
Frame rate mode                  : Constant
Frame rate                       : 29.970 fps
Standard                         : NTSC
Color space                      : YUV
Chroma subsampling               : 4:2:0
Bit depth                        : 8 bits
Scan type                        : Progressive
Bits/(Pixel*Frame)               : 0.131
Stream size                      : 106 MiB (93%)
Language                         : English
Encoded date                     : UTC 2011-10-20 15:55:07
Tagged date                      : UTC 2011-10-20 15:55:07
Audio
ID                               : 2
Format                           : AAC
Format/Info                      : Advanced Audio Codec
Format profile                   : LC
Codec ID                         : 40
Duration                         : 4mn 7s
Bit rate mode                    : Variable
Bit rate                         : 253 Kbps
Maximum bit rate                 : 353 Kbps
Channel(s)                       : 2 channels
Channel positions                : Front: L R
Sampling rate                    : 48.0 KHz
Compression mode                 : Lossy
Stream size                      : 7.46 MiB (7%)
Language                         : English
Encoded date                     : UTC 2011-10-20 15:55:07
Tagged date                      : UTC 2011-10-20 15:55:07
Material_Duration                : 247189
Material_StreamSize              : 7828950
Всё мультимедийное содержимое данного издания помещено в папку Extra.
На оригинале, согласно ТОС, дата-трек находится в конце диска, оба видео-файла находятся в корневом каталоге диска.
Раздача осуществляется исключительно в ознакомительных целях!
Всем, кому понравилось творчество Restricted Area
, после ознакомления, советую приобрести лицензионный диск, и тем самым поддержать исполнителя !
Handing out is carried out only to get acquainted!
Everyone who likes to art Restricted Area
, I advise to follow my example and buy a license legally CD, and thus support the artist!
Правила, инструкции, FAQ!!!
Торрент  Добавлен [26 июн 2020, 19:46] Скачать торрент Магнет ссылка
Скачать торрент
[ Размер 20.12 КБ / Просмотров 11 ]

Статус
Проверен 
 
Размер  480.4 МБ
Приватный: Нет (DHT включён)
.torrent скачан  0
 


     Отправить личное сообщение
   
Страница 1 из 1
Показать сообщения за:  Поле сортировки  
Начать новую тему Ответить на тему


Сейчас этот форум просматривают: нет зарегистрированных пользователей и гости: 0


Вы не можете начинать темы
Вы не можете отвечать на сообщения
Вы не можете редактировать свои сообщения
Вы не можете удалять свои сообщения
Вы не можете добавлять вложения

Перейти:  
cron
cron