Начать новую тему Ответить на тему
Статистика раздачи
Размер: 354.8 МБ | Добавлен: 26 июн 2020, 19:46 | Скачали: 0
Сидеров: 0  [0 байт/сек]    Личеров: 0  [0 байт/сек]
Пред. тема | След. тема 

Автор
Сообщение

СообщениеДобавлено: 26 июн 2020, 19:46 

Ответить с цитатой 

Restricted Area / Realtime
Жанр: EBM, Synth-pop
Страна-производитель диска: Germany
Год издания: 2000
Издатель (лейбл): Life Is Painful Records
Номер по каталогу: Pain 0003
Формат: CD, Album
Аудиокодек: FLAC (*.flac)
Тип рипа: image+.cue
Битрейт аудио: lossless
Продолжительность: 0:46:13.00
Источник (релизер): Физический носитель (Собственный рип с оригинала)
Наличие сканов в содержимом раздачи: да
Треклист:
01. Something True [4:37]
02. Alcohol N' Downwards [5:15]
03. Turn Like The Devil [4:01]
04. Toi Et Moi [3:37]
05. Insight Out [4:13]
06. When In Doubt [3:54]
07. Red Gift [3:35]
08. Dead End [3:43]
09. Upside Down [3:49]
10. Turning To Stone [4:35]
11. Timesong [4:55]
Код:
Exact Audio Copy V1.0 beta 3 from 29. August 2011
EAC extraction logfile from 5. June 2012, 20:36
Restricted Area / Realtime
Used drive  : PLEXTOR BDDVDR PX-B320SA   Adapter: 3  ID: 1
Read mode               : Secure
Utilize accurate stream : Yes
Defeat audio cache      : Yes
Make use of C2 pointers : No
Read offset correction                      : 6
Overread into Lead-In and Lead-Out          : No
Fill up missing offset samples with silence : Yes
Delete leading and trailing silent blocks   : No
Null samples used in CRC calculations       : Yes
Used interface                              : Installed external ASPI interface
Used output format              : User Defined Encoder
Selected bitrate                : 128 kBit/s
Quality                         : High
Add ID3 tag                     : No
Command line compressor         : C:\Program Files (x86)\FLAC\flac.exe
Additional command line options : -V -8 -T "Date=%year%" -T "Genre=%genre%" %source%
TOC of the extracted CD
     Track |   Start  |  Length  | Start sector | End sector
    ---------------------------------------------------------
        1  |  0:00.00 |  4:37.28 |         0    |    20802
        2  |  4:37.28 |  5:14.55 |     20803    |    44407
        3  |  9:52.08 |  4:00.32 |     44408    |    62439
        4  | 13:52.40 |  3:36.63 |     62440    |    78702
        5  | 17:29.28 |  4:12.43 |     78703    |    97645
        6  | 21:41.71 |  3:53.67 |     97646    |   115187
        7  | 25:35.63 |  3:34.56 |    115188    |   131293
        8  | 29:10.44 |  3:42.73 |    131294    |   148016
        9  | 32:53.42 |  3:49.11 |    148017    |   165202
       10  | 36:42.53 |  4:35.29 |    165203    |   185856
       11  | 41:18.07 |  4:54.68 |    185857    |   207974
Range status and errors
Selected range
     Filename D:\Restricted Area - Realtime (2000)\Restricted Area - Realtime.wav
     Peak level 100.0 %
     Extraction speed 7.5 X
     Range quality 100.0 %
     Test CRC C6276AA3
     Copy CRC C6276AA3
     Copy OK
No errors occurred
AccurateRip summary
Track  1  accurately ripped (confidence 2)  [626DB3DF]  (AR v1)
Track  2  accurately ripped (confidence 2)  [FA459B47]  (AR v1)
Track  3  accurately ripped (confidence 2)  [6422EF59]  (AR v1)
Track  4  accurately ripped (confidence 2)  [7576F4B3]  (AR v1)
Track  5  accurately ripped (confidence 2)  [553DC809]  (AR v1)
Track  6  accurately ripped (confidence 2)  [68A40150]  (AR v1)
Track  7  accurately ripped (confidence 2)  [929D986F]  (AR v1)
Track  8  accurately ripped (confidence 2)  [68E11AF6]  (AR v1)
Track  9  accurately ripped (confidence 2)  [9AEE61B9]  (AR v1)
Track 10  accurately ripped (confidence 2)  [1994B007]  (AR v1)
Track 11  accurately ripped (confidence 2)  [AC01FD38]  (AR v1)
All tracks accurately ripped
End of status report
==== Log checksum 85B47CF5EBD8A35D5EA66F37236FE096F2CCDF6D3A0CD520CA202C306C03C21C ====
Правила, инструкции, FAQ!!!
Торрент  Добавлен [26 июн 2020, 19:46] Скачать торрент Магнет ссылка
Скачать торрент
[ Размер 14.87 КБ / Просмотров 3 ]

Статус
Проверен 
 
Размер  354.8 МБ
Приватный: Нет (DHT включён)
.torrent скачан  0
 


     Отправить личное сообщение
   
Страница 1 из 1
Показать сообщения за:  Поле сортировки  
Начать новую тему Ответить на тему


Сейчас этот форум просматривают: нет зарегистрированных пользователей и гости: 0


Вы не можете начинать темы
Вы не можете отвечать на сообщения
Вы не можете редактировать свои сообщения
Вы не можете удалять свои сообщения
Вы не можете добавлять вложения

Перейти:  
cron