Начать новую тему Ответить на тему
Статистика раздачи
Размер: 289.28 МБ | Добавлен: 26 июн 2020, 17:40 | Скачали: 0
Сидеров: 0  [0 байт/сек]    Личеров: 0  [0 байт/сек]
Пред. тема | След. тема 

Автор
Сообщение

СообщениеДобавлено: 26 июн 2020, 17:40 

Ответить с цитатой 

Pride And Fall - Nephesh
Жанр: EBM, Synth-pop
Год выпуска диска: 2003
Производитель диска: Германия
Аудио кодек: APE
Тип рипа: image+.cue
Битрейт аудио: lossless
Продолжительность: 00:43:02
Трэклист:
01.The Approach
02.Inside
03.Paragon
04.Matriarch
05.Omniscient
06.December
07.Delusion
08.Construct
09.Serenade Of Dreams
10.Extinction Means Forever
11.Untitled
Exact Audio Copy V0.99 prebeta 5 from 4. May 2009
Отчёт EAC об извлечении, выполненном 25. июля 2009, 22:31
Pride And Fall / Nephesh
Дисковод: Optiarc DVD RW AD-7201S Adapter: 1 ID: 1
Режим чтения : Достоверность
Использование точного потока : Да
Отключение кэша аудио : Да
Использование указателей C2 : Нет
Коррекция смещения при чтении : 48
Способность читать области Lead-in и Lead-out : Нет
Заполнение пропущенных сэмплов тишиной : Да
Удаление блоков с тишиной в начале и конце : Нет
При вычислениях CRC использовались нулевые сэмплы : Да
Интерфейс : Установленный внешний ASPI-интерфейс
Выходной формат : Внутренние WAV-операции
Формат сэмплов : 44.100 Гц; 16 бит; стерео
TOC извлечённого CD
Трек | Старт | Длительность | Начальный сектор | Конечный сектор
---------------------------------------------------------------------
1 | 0:00.00 | 2:27.17 | 0 | 11041
2 | 2:27.17 | 5:21.39 | 11042 | 35155
3 | 7:48.56 | 5:10.61 | 35156 | 58466
4 | 12:59.42 | 1:46.05 | 58467 | 66421
5 | 14:45.47 | 5:53.21 | 66422 | 92917
6 | 20:38.68 | 5:49.50 | 92918 | 119142
7 | 26:28.43 | 1:43.55 | 119143 | 126922
8 | 28:12.23 | 6:01.35 | 126923 | 154032
9 | 34:13.58 | 3:10.16 | 154033 | 168298
10 | 37:23.74 | 4:21.08 | 168299 | 187881
11 | 41:45.07 | 0:08.00 | 187882 | 188481
12 | 41:53.07 | 0:08.00 | 188482 | 189081
13 | 42:01.07 | 0:08.00 | 189082 | 189681
14 | 42:09.07 | 0:08.00 | 189682 | 190281
15 | 42:17.07 | 0:08.00 | 190282 | 190881
16 | 42:25.07 | 0:08.00 | 190882 | 191481
17 | 42:33.07 | 0:08.00 | 191482 | 192081
18 | 42:41.07 | 0:08.00 | 192082 | 192681
19 | 42:49.07 | 0:08.00 | 192682 | 193281
20 | 42:57.07 | 0:08.00 | 193282 | 193881
21 | 43:05.07 | 0:08.00 | 193882 | 194481
22 | 43:13.07 | 0:08.00 | 194482 | 195081
23 | 43:21.07 | 0:08.00 | 195082 | 195681
24 | 43:29.07 | 0:08.00 | 195682 | 196281
25 | 43:37.07 | 0:08.00 | 196282 | 196881
26 | 43:45.07 | 0:08.00 | 196882 | 197481
27 | 43:53.07 | 0:08.00 | 197482 | 198081
28 | 44:01.07 | 0:08.00 | 198082 | 198681
29 | 44:09.07 | 0:08.00 | 198682 | 199281
30 | 44:17.07 | 0:08.00 | 199282 | 199881
31 | 44:25.07 | 0:08.00 | 199882 | 200481
32 | 44:33.07 | 0:08.00 | 200482 | 201081
33 | 44:41.07 | 0:08.00 | 201082 | 201681
34 | 44:49.07 | 0:08.00 | 201682 | 202281
35 | 44:57.07 | 0:08.00 | 202282 | 202881
36 | 45:05.07 | 0:08.00 | 202882 | 203481
37 | 45:13.07 | 0:08.00 | 203482 | 204081
38 | 45:21.07 | 0:08.00 | 204082 | 204681
39 | 45:29.07 | 0:08.00 | 204682 | 205281
40 | 45:37.07 | 0:08.00 | 205282 | 205881
41 | 45:45.07 | 0:08.00 | 205882 | 206481
42 | 45:53.07 | 0:08.00 | 206482 | 207081
43 | 46:01.07 | 0:08.00 | 207082 | 207681
44 | 46:09.07 | 0:08.00 | 207682 | 208281
45 | 46:17.07 | 0:08.00 | 208282 | 208881
46 | 46:25.07 | 0:08.00 | 208882 | 209481
47 | 46:33.07 | 0:08.00 | 209482 | 210081
48 | 46:41.07 | 0:08.00 | 210082 | 210681
49 | 46:49.07 | 0:08.00 | 210682 | 211281
50 | 46:57.07 | 0:08.00 | 211282 | 211881
51 | 47:05.07 | 0:08.00 | 211882 | 212481
52 | 47:13.07 | 0:08.00 | 212482 | 213081
53 | 47:21.07 | 0:08.00 | 213082 | 213681
54 | 47:29.07 | 0:08.00 | 213682 | 214281
55 | 47:37.07 | 0:08.00 | 214282 | 214881
56 | 47:45.07 | 0:08.00 | 214882 | 215481
57 | 47:53.07 | 0:08.00 | 215482 | 216081
58 | 48:01.07 | 0:08.00 | 216082 | 216681
59 | 48:09.07 | 0:08.00 | 216682 | 217281
60 | 48:17.07 | 0:08.00 | 217282 | 217881
61 | 48:25.07 | 0:08.00 | 217882 | 218481
62 | 48:33.07 | 0:08.00 | 218482 | 219081
63 | 48:41.07 | 0:08.00 | 219082 | 219681
64 | 48:49.07 | 0:08.00 | 219682 | 220281
65 | 48:57.07 | 0:08.00 | 220282 | 220881
66 | 49:05.07 | 0:08.00 | 220882 | 221481
67 | 49:13.07 | 0:08.00 | 221482 | 222081
68 | 49:21.07 | 0:08.00 | 222082 | 222681
69 | 49:29.07 | 0:08.00 | 222682 | 223281
70 | 49:37.07 | 0:08.00 | 223282 | 223881
71 | 49:45.07 | 0:08.00 | 223882 | 224481
72 | 49:53.07 | 0:08.00 | 224482 | 225081
73 | 50:01.07 | 0:08.00 | 225082 | 225681
74 | 50:09.07 | 0:08.00 | 225682 | 226281
75 | 50:17.07 | 0:08.00 | 226282 | 226881
76 | 50:25.07 | 0:08.00 | 226882 | 227481
77 | 50:33.07 | 0:08.00 | 227482 | 228081
78 | 50:41.07 | 0:08.00 | 228082 | 228681
79 | 50:49.07 | 0:08.00 | 228682 | 229281
80 | 50:57.07 | 0:08.00 | 229282 | 229881
81 | 51:05.07 | 0:08.00 | 229882 | 230481
82 | 51:13.07 | 0:08.00 | 230482 | 231081
83 | 51:21.07 | 0:08.00 | 231082 | 231681
84 | 51:29.07 | 0:08.00 | 231682 | 232281
85 | 51:37.07 | 0:08.00 | 232282 | 232881
86 | 51:45.07 | 0:08.00 | 232882 | 233481
87 | 51:53.07 | 0:08.00 | 233482 | 234081
88 | 52:01.07 | 0:08.00 | 234082 | 234681
89 | 52:09.07 | 0:08.00 | 234682 | 235281
90 | 52:17.07 | 0:08.00 | 235282 | 235881
91 | 52:25.07 | 0:08.00 | 235882 | 236481
92 | 52:33.07 | 0:08.00 | 236482 | 237081
93 | 52:41.07 | 0:08.00 | 237082 | 237681
94 | 52:49.07 | 0:08.00 | 237682 | 238281
95 | 52:57.07 | 0:08.00 | 238282 | 238881
96 | 53:05.07 | 0:08.00 | 238882 | 239481
97 | 53:13.07 | 0:08.00 | 239482 | 240081
98 | 53:21.07 | 0:08.00 | 240082 | 240681
99 | 53:29.07 | 1:25.58 | 240682 | 247114
Характеристики диапазона извлечения и сообщения об ошибках
Выбранный диапазон
Имя файла D:\Documents and Settings\Rodexx\Рабочий стол\Pride and Fall - Nephesh\Pride And Fall - Nephesh.wav
Пиковый уровень 99.1 %
Качество диапазона 100.0 %
CRC теста A2D2FD6A
CRC копии A2D2FD6A
Копирование... OK
Ошибок не произошло
Конец отчёта
Правила, инструкции, FAQ!!!
Торрент  Добавлен [26 июн 2020, 17:40] Скачать торрент Магнет ссылка
Скачать торрент
[ Размер 12.02 КБ / Просмотров 13 ]

Статус
Проверен 
 
Размер  289.28 МБ
Приватный: Нет (DHT включён)
.torrent скачан  0
 


     Отправить личное сообщение
   
Страница 1 из 1
Показать сообщения за:  Поле сортировки  
Начать новую тему Ответить на тему


Сейчас этот форум просматривают: нет зарегистрированных пользователей и гости: 0


Вы не можете начинать темы
Вы не можете отвечать на сообщения
Вы не можете редактировать свои сообщения
Вы не можете удалять свои сообщения
Вы не можете добавлять вложения

Перейти:  
cron