Начать новую тему Ответить на тему
Статистика раздачи
Размер: 380.87 МБ | Добавлен: 26 июн 2020, 19:04 | Скачали: 0
Сидеров: 1  [0 байт/сек]    Личеров: 0  [0 байт/сек]
Пред. тема | След. тема 

Автор
Сообщение

СообщениеДобавлено: 26 июн 2020, 19:04 

Ответить с цитатой 

Die Krupps / Volle Kraft Voraus!
Жанр: EBM, Synth-pop, New Wave
Носитель: CD
Год издания: 1993
Издатель (лейбл): Our Choice
Номер по каталогу: RTD 195.1540.2 42
Аудиокодек: FLAC (*.flac)
Тип рипа: tracks+.cue
Битрейт аудио: lossless
Продолжительность: 47:37
Источник (релизер): обмен
Наличие сканов в содержимом раздачи: да
Треклист:
01. Die Krupps - Volle Kraft Voraus (3:47)
02. Die Krupps - Goldfinger (3:24)
03. Die Krupps - Für Einen Augenblick (4:17)
04. Die Krupps - Tod Und Teufel (2:48)
05. Die Krupps - Das Ende Der Träume (3:37)
06. Die Krupps - Neue Helden (3:12)
07. Die Krupps - Wahre Arbeit - Wahrer Lohn (5:27)
08. Die Krupps - ...Denn Du Lebst Nur Einmal (3:31)
09. Die Krupps - Zwei Herzen, Ein Rhythmus (3:37)
10. Die Krupps - Lärm Macht Spaß (3:47)
11. Die Krupps - Wahre Arbeit - Wahrer Lohn (3:45)
12. Die Krupps - True Work - True Pay (6:24)
Код:
Exact Audio Copy V1.0 beta 3 from 29. August 2011
EAC extraction logfile from 15. July 2015, 21:50
Die Krupps / Volle Kraft Voraus
Used drive  : HL-DT-STDVDRAM GH24NSB0   Adapter: 5  ID: 0
Read mode               : Secure
Utilize accurate stream : Yes
Defeat audio cache      : Yes
Make use of C2 pointers : No
Read offset correction                      : 6
Overread into Lead-In and Lead-Out          : No
Fill up missing offset samples with silence : Yes
Delete leading and trailing silent blocks   : No
Null samples used in CRC calculations       : Yes
Used interface                              : Native Win32 interface for Win NT & 2000
Gap handling                                : Appended to previous track
Used output format              : User Defined Encoder
Selected bitrate                : 1024 kBit/s
Quality                         : High
Add ID3 tag                     : No
Command line compressor         : C:\Program Files (x86)\Exact Audio Copy\Flac\flac.exe
Additional command line options : -8 -V -T "ARTIST=%artist%" -T "TITLE=%title%" -T "ALBUM=%albumtitle%" -T "DATE=%year%" -T "TRACKNUMBER=%tracknr%" -T "TOTALTRACKS=%numtracks%" -T "GENRE=%genre%" -T "ALBUMARTIST=%albumartist%" -T "ALBUM ARTIST=%albumartist%" -T "COMMENT=EAC Secure Mode, Test & Copy, AccurateRip, FLAC -8" %source%
TOC of the extracted CD
     Track |   Start  |  Length  | Start sector | End sector
    ---------------------------------------------------------
        1  |  0:00.00 |  3:47.35 |         0    |    17059
        2  |  3:47.35 |  3:24.25 |     17060    |    32384
        3  |  7:11.60 |  4:17.20 |     32385    |    51679
        4  | 11:29.05 |  2:47.70 |     51680    |    64274
        5  | 14:17.00 |  3:37.33 |     64275    |    80582
        6  | 17:54.33 |  3:11.45 |     80583    |    94952
        7  | 21:06.03 |  5:27.30 |     94953    |   119507
        8  | 26:33.33 |  3:30.72 |    119508    |   135329
        9  | 30:04.30 |  3:36.38 |    135330    |   151567
       10  | 33:40.68 |  3:47.35 |    151568    |   168627
       11  | 37:28.28 |  3:44.40 |    168628    |   185467
       12  | 41:12.68 |  6:24.00 |    185468    |   214267
Track  1
     Filename D:\1\01 - Volle Kraft Voraus.wav
     Pre-gap length  0:00:02.00
     Peak level 99.0 %
     Extraction speed 1.0 X
     Track quality 100.0 %
     Test CRC 6C7AB69D
     Copy CRC 6C7AB69D
     Accurately ripped (confidence 10)  [B8D9561C]  (AR v2)
     Copy OK
Track  2
     Filename D:\1\02 - Goldfinger.wav
     Pre-gap length  0:00:02.40
     Peak level 99.0 %
     Extraction speed 1.1 X
     Track quality 100.0 %
     Test CRC E9ECA633
     Copy CRC E9ECA633
     Accurately ripped (confidence 10)  [8B437471]  (AR v2)
     Copy OK
Track  3
     Filename D:\1\03 - Fur Einen Augenblick.wav
     Pre-gap length  0:00:02.22
     Peak level 99.0 %
     Extraction speed 1.1 X
     Track quality 99.9 %
     Test CRC C60B1080
     Copy CRC C60B1080
     Accurately ripped (confidence 9)  [2725AB1B]  (AR v2)
     Copy OK
Track  4
     Filename D:\1\04 - Tod Und Teufel.wav
     Pre-gap length  0:00:02.26
     Peak level 98.7 %
     Extraction speed 1.2 X
     Track quality 100.0 %
     Test CRC C877F673
     Copy CRC C877F673
     Accurately ripped (confidence 9)  [15F6C086]  (AR v2)
     Copy OK
Track  5
     Filename D:\1\05 - Das Ende Der Traume.wav
     Pre-gap length  0:00:02.23
     Peak level 99.0 %
     Extraction speed 1.2 X
     Track quality 99.9 %
     Test CRC D65FE434
     Copy CRC D65FE434
     Accurately ripped (confidence 9)  [68EAC7A2]  (AR v2)
     Copy OK
Track  6
     Filename D:\1\06 - Neue Helden.wav
     Pre-gap length  0:00:02.14
     Peak level 98.6 %
     Extraction speed 1.4 X
     Track quality 100.0 %
     Test CRC 0AB66C2E
     Copy CRC 0AB66C2E
     Accurately ripped (confidence 9)  [5455494E]  (AR v2)
     Copy OK
Track  7
     Filename D:\1\07 - Wahre Arbeit - Wahrer Lohn.wav
     Pre-gap length  0:00:02.41
     Peak level 97.8 %
     Extraction speed 1.6 X
     Track quality 100.0 %
     Test CRC 355317B6
     Copy CRC 355317B6
     Accurately ripped (confidence 9)  [17EB86C3]  (AR v2)
     Copy OK
Track  8
     Filename D:\1\08 - ...Denn Du Lebst Nur Einmal.wav
     Pre-gap length  0:00:02.28
     Peak level 97.8 %
     Extraction speed 1.6 X
     Track quality 100.0 %
     Test CRC 2618C76E
     Copy CRC 2618C76E
     Accurately ripped (confidence 9)  [4CE5D85C]  (AR v2)
     Copy OK
Track  9
     Filename D:\1\09 - Zwei Herzen, Ein Rhythmus.wav
     Pre-gap length  0:00:02.24
     Peak level 96.2 %
     Extraction speed 1.7 X
     Track quality 100.0 %
     Test CRC 4E19B910
     Copy CRC 4E19B910
     Accurately ripped (confidence 9)  [FA38E1BB]  (AR v2)
     Copy OK
Track 10
     Filename D:\1\10 - Larm Macht Spass.wav
     Pre-gap length  0:00:02.23
     Peak level 98.3 %
     Extraction speed 1.8 X
     Track quality 100.0 %
     Test CRC BC91D254
     Copy CRC BC91D254
     Accurately ripped (confidence 9)  [1B42BC14]  (AR v2)
     Copy OK
Track 11
     Filename D:\1\11 - Wahre Arbeit - Wahrer Lohn.wav
     Pre-gap length  0:00:03.03
     Peak level 98.4 %
     Extraction speed 1.8 X
     Track quality 100.0 %
     Test CRC 16CFEA4C
     Copy CRC 16CFEA4C
     Accurately ripped (confidence 9)  [6A2A0F42]  (AR v2)
     Copy OK
Track 12
     Filename D:\1\12 - True Work - True Pay.wav
     Pre-gap length  0:00:02.25
     Peak level 97.3 %
     Extraction speed 2.0 X
     Track quality 100.0 %
     Test CRC 18DE5E69
     Copy CRC 18DE5E69
     Accurately ripped (confidence 9)  [0C545340]  (AR v2)
     Copy OK
All tracks accurately ripped
No errors occurred
End of status report
==== Log checksum BF6AE071337955C123CDC0DD22D4F72681737062F3E257C11A5DB37AC81B948D ====
Код:
REM GENRE Industrial
REM DATE 1982
REM DISCID A10B280C
REM COMMENT "ExactAudioCopy v1.0b3"
PERFORMER "Die Krupps"
TITLE "Volle Kraft Voraus"
FILE "01 - Volle Kraft Voraus.wav" WAVE
  TRACK 01 AUDIO
    TITLE "Volle Kraft Voraus"
    PERFORMER "Die Krupps"
    INDEX 01 00:00:00
  TRACK 02 AUDIO
    TITLE "Goldfinger"
    PERFORMER "Die Krupps"
    INDEX 00 03:44:70
FILE "02 - Goldfinger.wav" WAVE
    INDEX 01 00:00:00
  TRACK 03 AUDIO
    TITLE "Fur Einen Augenblick"
    PERFORMER "Die Krupps"
    INDEX 00 03:22:03
FILE "03 - Fur Einen Augenblick.wav" WAVE
    INDEX 01 00:00:00
  TRACK 04 AUDIO
    TITLE "Tod Und Teufel"
    PERFORMER "Die Krupps"
    INDEX 00 04:14:69
FILE "04 - Tod Und Teufel.wav" WAVE
    INDEX 01 00:00:00
  TRACK 05 AUDIO
    TITLE "Das Ende Der Traume"
    PERFORMER "Die Krupps"
    INDEX 00 02:45:47
FILE "05 - Das Ende Der Traume.wav" WAVE
    INDEX 01 00:00:00
  TRACK 06 AUDIO
    TITLE "Neue Helden"
    PERFORMER "Die Krupps"
    INDEX 00 03:35:19
FILE "06 - Neue Helden.wav" WAVE
    INDEX 01 00:00:00
  TRACK 07 AUDIO
    TITLE "Wahre Arbeit - Wahrer Lohn"
    PERFORMER "Die Krupps"
    INDEX 00 03:09:04
FILE "07 - Wahre Arbeit - Wahrer Lohn.wav" WAVE
    INDEX 01 00:00:00
  TRACK 08 AUDIO
    TITLE "...Denn Du Lebst Nur Einmal"
    PERFORMER "Die Krupps"
    INDEX 00 05:25:02
FILE "08 - ...Denn Du Lebst Nur Einmal.wav" WAVE
    INDEX 01 00:00:00
  TRACK 09 AUDIO
    TITLE "Zwei Herzen, Ein Rhythmus"
    PERFORMER "Die Krupps"
    INDEX 00 03:28:48
FILE "09 - Zwei Herzen, Ein Rhythmus.wav" WAVE
    INDEX 01 00:00:00
  TRACK 10 AUDIO
    TITLE "Larm Macht Spass"
    PERFORMER "Die Krupps"
    INDEX 00 03:34:15
FILE "10 - Larm Macht Spass.wav" WAVE
    INDEX 01 00:00:00
  TRACK 11 AUDIO
    TITLE "Wahre Arbeit - Wahrer Lohn"
    PERFORMER "Die Krupps"
    INDEX 00 03:44:32
FILE "11 - Wahre Arbeit - Wahrer Lohn.wav" WAVE
    INDEX 01 00:00:00
  TRACK 12 AUDIO
    TITLE "True Work - True Pay"
    PERFORMER "Die Krupps"
    INDEX 00 03:42:15
FILE "12 - True Work - True Pay.wav" WAVE
    INDEX 01 00:00:00
Правила, инструкции, FAQ!!!
Торрент  Добавлен [26 июн 2020, 19:04] Скачать торрент Магнет ссылка
Скачать торрент
[ Размер 16.81 КБ / Просмотров 3 ]

Статус
Проверен 
 
Размер  380.87 МБ
Приватный: Нет (DHT включён)
.torrent скачан  0
 


     Отправить личное сообщение
   
Страница 1 из 1
Показать сообщения за:  Поле сортировки  
Начать новую тему Ответить на тему


Сейчас этот форум просматривают: нет зарегистрированных пользователей и гости: 0


Вы не можете начинать темы
Вы не можете отвечать на сообщения
Вы не можете редактировать свои сообщения
Вы не можете удалять свои сообщения
Вы не можете добавлять вложения

Перейти:  
cron