Начать новую тему Ответить на тему
Статистика раздачи
Размер: 379.64 МБ | Добавлен: 26 июн 2020, 20:18 | Скачали: 0
Сидеров: 0  [0 байт/сек]    Личеров: 0  [0 байт/сек]
Пред. тема | След. тема 

Автор
Сообщение

СообщениеДобавлено: 26 июн 2020, 20:18 

Ответить с цитатой 

Lost Signal / Eviscerate
Жанр: EBM, Synth-pop
Страна-производитель диска: US
Год издания диска: 2006
Издатель (лейбл): 23db
Номер по каталогу: 23db-03
Аудиокодек: FLAC (*.flac)
Тип рипа: tracks+.cue
Битрейт аудио: lossless
Продолжительность: 00:54:06
Источник (релизер): What.cd
Наличие сканов в содержимом раздачи: да
Треклист:
1 Incalculable (3:34)
2 Quicksand Effect (5:38)
3 Locked Away (5:33)
4 Mourn (5:13)
5 Drowning (5:36)
7 Perfect Sky (6:42)
8 Haunted (4:17)
9 Blind (5:40)
10 Gone (5:34)
11 Quiet Fury (3:20)
Код:
Exact Audio Copy V0.99 prebeta 3 from 28. July 2007
EAC extraction logfile from 15. March 2008, 21:09
Lost Signal / Eviscerate
Used drive  : LITE-ON DVDRW SHW-1635S   Adapter: 1  ID: 0
Read mode               : Secure
Utilize accurate stream : Yes
Defeat audio cache      : Yes
Make use of C2 pointers : No
Read offset correction                      : 6
Overread into Lead-In and Lead-Out          : No
Fill up missing offset samples with silence : Yes
Delete leading and trailing silent blocks   : No
Null samples used in CRC calculations       : Yes
Used interface                              : Installed external ASPI interface
Gap handling                                : Appended to previous track
Used output format              : User Defined Encoder
Selected bitrate                : 192 kBit/s
Quality                         : High
Add ID3 tag                     : No
Command line compressor         : C:\Program Files\Exact Audio Copy\Flac\flac.exe
Additional command line options : -8 -A tukey(0.25) -A gauss(0.1875) -b 4096 -V -T "artist=%a" -T "title=%t" -T "album=%g" -T "date=%y" -T "tracknumber=%n" -T "genre=%m" %s --sector-align
TOC of the extracted CD
     Track |   Start  |  Length  | Start sector | End sector
    ---------------------------------------------------------
        1  |  0:00.00 |  3:34.04 |         0    |    16053
        2  |  3:34.04 |  5:38.05 |     16054    |    41408
        3  |  9:12.09 |  5:33.72 |     41409    |    66455
        4  | 14:46.06 |  5:13.18 |     66456    |    89948
        5  | 19:59.24 |  5:36.32 |     89949    |   115180
        6  | 25:35.56 |  2:54.46 |    115181    |   128276
        7  | 28:30.27 |  6:42.34 |    128277    |   158460
        8  | 35:12.61 |  4:17.44 |    158461    |   177779
        9  | 39:30.30 |  5:40.73 |    177780    |   203352
       10  | 45:11.28 |  5:34.47 |    203353    |   228449
       11  | 50:46.00 |  3:20.49 |    228450    |   243498
Track  1
     Filename M:\L\Lost Signal\Lost_Signal-Eviscerate-2006-FLAC\01 - Lost Signal - Incalculable.wav
     Pre-gap length  0:00:02.00
     Peak level 76.6 %
     Track quality 100.0 %
     Test CRC 680C74F3
     Copy CRC 680C74F3
     Copy OK
Track  2
     Filename M:\L\Lost Signal\Lost_Signal-Eviscerate-2006-FLAC\02 - Lost Signal - Quicksand Effect.wav
     Peak level 96.6 %
     Track quality 100.0 %
     Test CRC 0BDFCAD9
     Copy CRC 0BDFCAD9
     Copy OK
Track  3
     Filename M:\L\Lost Signal\Lost_Signal-Eviscerate-2006-FLAC\03 - Lost Signal - Locked Away.wav
     Peak level 96.6 %
     Track quality 100.0 %
     Test CRC CBBC77CC
     Copy CRC CBBC77CC
     Copy OK
Track  4
     Filename M:\L\Lost Signal\Lost_Signal-Eviscerate-2006-FLAC\04 - Lost Signal - Mourn.wav
     Peak level 91.1 %
     Track quality 100.0 %
     Test CRC 2369C810
     Copy CRC 2369C810
     Copy OK
Track  5
     Filename M:\L\Lost Signal\Lost_Signal-Eviscerate-2006-FLAC\05 - Lost Signal - Drowning.wav
     Peak level 96.6 %
     Track quality 100.0 %
     Test CRC 297BCDD5
     Copy CRC 297BCDD5
     Copy OK
Track  6
     Filename M:\L\Lost Signal\Lost_Signal-Eviscerate-2006-FLAC\06 - Lost Signal - Distance.wav
     Peak level 96.6 %
     Track quality 100.0 %
     Test CRC 4EF39C37
     Copy CRC 4EF39C37
     Copy OK
Track  7
     Filename M:\L\Lost Signal\Lost_Signal-Eviscerate-2006-FLAC\07 - Lost Signal - Perfect Sky.wav
     Peak level 96.6 %
     Track quality 100.0 %
     Test CRC 959C5182
     Copy CRC 959C5182
     Copy OK
Track  8
     Filename M:\L\Lost Signal\Lost_Signal-Eviscerate-2006-FLAC\08 - Lost Signal - Haunted.wav
     Peak level 96.6 %
     Track quality 100.0 %
     Test CRC 7F951FFA
     Copy CRC 7F951FFA
     Copy OK
Track  9
     Filename M:\L\Lost Signal\Lost_Signal-Eviscerate-2006-FLAC\09 - Lost Signal - Blind.wav
     Peak level 96.6 %
     Track quality 100.0 %
     Test CRC D216CB57
     Copy CRC D216CB57
     Copy OK
Track 10
     Filename M:\L\Lost Signal\Lost_Signal-Eviscerate-2006-FLAC\10 - Lost Signal - Gone.wav
     Peak level 90.7 %
     Track quality 100.0 %
     Test CRC 38CE443E
     Copy CRC 38CE443E
     Copy OK
Track 11
     Filename M:\L\Lost Signal\Lost_Signal-Eviscerate-2006-FLAC\11 - Lost Signal - Quiet Fury.wav
     Peak level 96.6 %
     Track quality 100.0 %
     Test CRC 82F9CAB2
     Copy CRC 82F9CAB2
     Copy OK
No errors occurred
End of status report
Код:
REM GENRE Synthpop
REM DATE 2006
REM DISCID 820CAE0B
REM COMMENT "ExactAudioCopy v0.99pb3"
PERFORMER "Lost Signal"
TITLE "Eviscerate"
FILE "01 - Lost Signal - Incalculable.wav" WAVE
  TRACK 01 AUDIO
    TITLE "Incalculable"
    PERFORMER "Lost Signal"
    INDEX 01 00:00:00
FILE "02 - Lost Signal - Quicksand Effect.wav" WAVE
  TRACK 02 AUDIO
    TITLE "Quicksand Effect"
    PERFORMER "Lost Signal"
    INDEX 01 00:00:00
FILE "03 - Lost Signal - Locked Away.wav" WAVE
  TRACK 03 AUDIO
    TITLE "Locked Away"
    PERFORMER "Lost Signal"
    INDEX 01 00:00:00
FILE "04 - Lost Signal - Mourn.wav" WAVE
  TRACK 04 AUDIO
    TITLE "Mourn"
    PERFORMER "Lost Signal"
    INDEX 01 00:00:00
FILE "05 - Lost Signal - Drowning.wav" WAVE
  TRACK 05 AUDIO
    TITLE "Drowning"
    PERFORMER "Lost Signal"
    INDEX 01 00:00:00
FILE "06 - Lost Signal - Distance.wav" WAVE
  TRACK 06 AUDIO
    TITLE "Distance"
    PERFORMER "Lost Signal"
    INDEX 01 00:00:00
FILE "07 - Lost Signal - Perfect Sky.wav" WAVE
  TRACK 07 AUDIO
    TITLE "Perfect Sky"
    PERFORMER "Lost Signal"
    INDEX 01 00:00:00
FILE "08 - Lost Signal - Haunted.wav" WAVE
  TRACK 08 AUDIO
    TITLE "Haunted"
    PERFORMER "Lost Signal"
    INDEX 01 00:00:00
FILE "09 - Lost Signal - Blind.wav" WAVE
  TRACK 09 AUDIO
    TITLE "Blind"
    PERFORMER "Lost Signal"
    INDEX 01 00:00:00
FILE "10 - Lost Signal - Gone.wav" WAVE
  TRACK 10 AUDIO
    TITLE "Gone"
    PERFORMER "Lost Signal"
    INDEX 01 00:00:00
FILE "11 - Lost Signal - Quiet Fury.wav" WAVE
  TRACK 11 AUDIO
    TITLE "Quiet Fury"
    PERFORMER "Lost Signal"
    INDEX 01 00:00:00
Код:
AUDIOCHECKER v2.0 beta (build 457) - by Dester - opdester@freemail.hu
~~~~~~~~~~~~~~~~~~~~~~~~~~~~~~~~~~
Started at: воскресенье, 14. 08. 2011. - 11:00.27
11 files found
01 -===- N:\раздача\Lost_Signal-Eviscerate-2006-FLAC\01 - Lost Signal - Incalculable.flac
  Extracted successfully
  Conclusion: this track is CDDA with probability 100%
  Tempfile successfully deleted.
02 -===- N:\раздача\Lost_Signal-Eviscerate-2006-FLAC\02 - Lost Signal - Quicksand Effect.flac
  Extracted successfully
  Conclusion: this track is CDDA with probability 100%
  Tempfile successfully deleted.
03 -===- N:\раздача\Lost_Signal-Eviscerate-2006-FLAC\03 - Lost Signal - Locked Away.flac
  Extracted successfully
  Conclusion: this track is CDDA with probability 100%
  Tempfile successfully deleted.
04 -===- N:\раздача\Lost_Signal-Eviscerate-2006-FLAC\04 - Lost Signal - Mourn.flac
  Extracted successfully
  Conclusion: this track is CDDA with probability 87%
  Tempfile successfully deleted.
05 -===- N:\раздача\Lost_Signal-Eviscerate-2006-FLAC\05 - Lost Signal - Drowning.flac
  Extracted successfully
  Conclusion: this track is CDDA with probability 100%
  Tempfile successfully deleted.
06 -===- N:\раздача\Lost_Signal-Eviscerate-2006-FLAC\06 - Lost Signal - Distance.flac
  Extracted successfully
  Conclusion: this track is CDDA with probability 100%
  Tempfile successfully deleted.
07 -===- N:\раздача\Lost_Signal-Eviscerate-2006-FLAC\07 - Lost Signal - Perfect Sky.flac
  Extracted successfully
  Conclusion: this track is CDDA with probability 100%
  Tempfile successfully deleted.
08 -===- N:\раздача\Lost_Signal-Eviscerate-2006-FLAC\08 - Lost Signal - Haunted.flac
  Extracted successfully
  Conclusion: this track is CDDA with probability 100%
  Tempfile successfully deleted.
09 -===- N:\раздача\Lost_Signal-Eviscerate-2006-FLAC\09 - Lost Signal - Blind.flac
  Extracted successfully
  Conclusion: this track is CDDA with probability 100%
  Tempfile successfully deleted.
10 -===- N:\раздача\Lost_Signal-Eviscerate-2006-FLAC\10 - Lost Signal - Gone.flac
  Extracted successfully
  Conclusion: this track is CDDA with probability 100%
  Tempfile successfully deleted.
11 -===- N:\раздача\Lost_Signal-Eviscerate-2006-FLAC\11 - Lost Signal - Quiet Fury.flac
  Extracted successfully
  Conclusion: this track is CDDA with probability 100%
  Tempfile successfully deleted.
Finished at: воскресенье, 14. 08. 2011. - 11:05.38 (operation time: 0:05.11)
Правила, инструкции, FAQ!!!
Торрент  Добавлен [26 июн 2020, 20:18] Скачать торрент Магнет ссылка
Скачать торрент
[ Размер 16.39 КБ / Просмотров 8 ]

Статус
Проверен 
 
Размер  379.64 МБ
Приватный: Нет (DHT включён)
.torrent скачан  0
 


     Отправить личное сообщение
   
Страница 1 из 1
Показать сообщения за:  Поле сортировки  
Начать новую тему Ответить на тему


Сейчас этот форум просматривают: нет зарегистрированных пользователей и гости: 0


Вы не можете начинать темы
Вы не можете отвечать на сообщения
Вы не можете редактировать свои сообщения
Вы не можете удалять свои сообщения
Вы не можете добавлять вложения

Перейти:  
cron