Начать новую тему Ответить на тему
Статистика раздачи
Размер: 593 МБ | Добавлен: 26 июн 2020, 20:18 | Скачали: 0
Сидеров: 0  [0 байт/сек]    Личеров: 0  [0 байт/сек]
Пред. тема | След. тема 

Автор
Сообщение

СообщениеДобавлено: 26 июн 2020, 20:18 

Ответить с цитатой 

Lost Signal / Catharsis
Жанр: Electronic / EBM, Synth-pop
Страна-производитель диска: Germany
Год издания диска: 2001
Издатель (лейбл): Matrix Cube / [Trisol] Music Group GmbH
Номер по каталогу: TRI 109 CD
Формат: CD, Album
Аудиокодек: FLAC (*.flac)
Тип рипа: image+.cue
Битрейт аудио: lossless
Продолжительность: 1:03:40.63
Источник (релизер): Физический носитель (Собственный рип с оригинального CD).
Наличие сканов в содержимом раздачи: да
Треклист:
01. Preface [2:27]
02. Unfulfilled [5:26]
03. Apathy [5:18]
04. Shame [5:15]
05. Absence [6:05]
06. Martyr [4:38]
07. Regret [6:01]
08. Overcome [5:41]
09. Torment [5:43]
10. Strain [5:15]
11. Dissonance [5:53]
12. Frozen [5:57]
Код:
Exact Audio Copy V1.0 beta 3 from 29. August 2011
EAC extraction logfile from 30. January 2012, 19:38
Lost Signal / Catharsis
Used drive  : PLEXTOR BDDVDR PX-B320SA   Adapter: 0  ID: 2
Read mode               : Secure
Utilize accurate stream : Yes
Defeat audio cache      : Yes
Make use of C2 pointers : No
Read offset correction                      : 6
Overread into Lead-In and Lead-Out          : No
Fill up missing offset samples with silence : Yes
Delete leading and trailing silent blocks   : No
Null samples used in CRC calculations       : Yes
Used interface                              : Native Win32 interface for Win NT & 2000
Used output format              : User Defined Encoder
Selected bitrate                : 128 kBit/s
Quality                         : High
Add ID3 tag                     : No
Command line compressor         : C:\Program Files (x86)\FLAC\flac.exe
Additional command line options : -V -8 -T "Date=%year%" -T "Genre=%genre%" %source%
TOC of the extracted CD
     Track |   Start  |  Length  | Start sector | End sector
    ---------------------------------------------------------
        1  |  0:00.00 |  2:26.52 |         0    |    11001
        2  |  2:26.52 |  5:26.32 |     11002    |    35483
        3  |  7:53.09 |  5:17.64 |     35484    |    59322
        4  | 13:10.73 |  5:14.57 |     59323    |    82929
        5  | 18:25.55 |  6:05.40 |     82930    |   110344
        6  | 24:31.20 |  4:38.25 |    110345    |   131219
        7  | 29:09.45 |  6:00.56 |    131220    |   158275
        8  | 35:10.26 |  5:41.46 |    158276    |   183896
        9  | 40:51.72 |  5:43.42 |    183897    |   209663
       10  | 46:35.39 |  5:14.74 |    209664    |   233287
       11  | 51:50.38 |  5:53.17 |    233288    |   259779
       12  | 57:43.55 |  5:57.08 |    259780    |   286562
Range status and errors
Selected range
     Filename D:\Lost Signal - Catharsis (2001)\Lost Signal - Catharsis.wav
     Peak level 100.0 %
     Extraction speed 8.2 X
     Range quality 100.0 %
     Test CRC EC704A6A
     Copy CRC EC704A6A
     Copy OK
No errors occurred
AccurateRip summary
Track  1  accurately ripped (confidence 2)  [44121E6E]  (AR v1)
Track  2  accurately ripped (confidence 2)  [81C4F74A]  (AR v1)
Track  3  accurately ripped (confidence 2)  [FBFD2B57]  (AR v1)
Track  4  not present in database
Track  5  accurately ripped (confidence 2)  [B4B60A56]  (AR v1)
Track  6  accurately ripped (confidence 2)  [53E99BD7]  (AR v1)
Track  7  accurately ripped (confidence 2)  [677364A8]  (AR v1)
Track  8  accurately ripped (confidence 2)  [7D940A27]  (AR v1)
Track  9  accurately ripped (confidence 2)  [C7656916]  (AR v1)
Track 10  accurately ripped (confidence 2)  [D4BE09A3]  (AR v1)
Track 11  accurately ripped (confidence 2)  [340ED580]  (AR v1)
Track 12  accurately ripped (confidence 2)  [6195BD84]  (AR v1)
11 трек(и) скопированы точно
 1 трек(и) не содержатся в базе AccurateRip
Some tracks could not be verified as accurate
End of status report
==== Log checksum 005E301032661A945181C4111065E39648F812C27EA92FDFD5AF9629BBD1F04C ====
Правила, инструкции, FAQ!!!
Торрент  Добавлен [26 июн 2020, 20:18] Скачать торрент Магнет ссылка
Скачать торрент
[ Размер 12.59 КБ / Просмотров 10 ]

Статус
Проверен 
 
Размер  593 МБ
Приватный: Нет (DHT включён)
.torrent скачан  0
 


     Отправить личное сообщение
   
Страница 1 из 1
Показать сообщения за:  Поле сортировки  
Начать новую тему Ответить на тему


Сейчас этот форум просматривают: нет зарегистрированных пользователей и гости: 0


Вы не можете начинать темы
Вы не можете отвечать на сообщения
Вы не можете редактировать свои сообщения
Вы не можете удалять свои сообщения
Вы не можете добавлять вложения

Перейти:  
cron