Начать новую тему Ответить на тему
Статистика раздачи
Размер: 635.42 МБ | Добавлен: 26 июн 2020, 16:52 | Скачали: 0
Сидеров: 0  [0 байт/сек]    Личеров: 0  [0 байт/сек]
Пред. тема | След. тема 

Автор
Сообщение

СообщениеДобавлено: 26 июн 2020, 16:52 

Ответить с цитатой 

Kash / Feuermord
Жанр: EBM, Synth-pop
Страна-производитель диска: Germany
Год издания: 2009
Издатель (лейбл): Wannsee Records
Номер по каталогу: SEE 055
Формат: CD, Enhanced, Album, Super Jewel Box
Аудиокодек: FLAC (*.flac)
Тип рипа: image+.cue
Битрейт аудио: lossless
Продолжительность: 0:57:22.24
Источник (релизер): Физический носитель (Собственный рип с оригинала)
Наличие сканов в содержимом раздачи: да
Треклист:
01. Glaubst Du Wirklich [4:15]
02. Falscher Glaube [4:40]
03. Ich Sah Gott [5:18]
04. Auferstehung (Instrumental) [1:52]
05. Kommunion (Albumversion feat. Nik Page) [4:09]
06. Bei Nacht (2009) [4:39]
07. Feuermord [5:32]
08. Gefallener Engel (Instrumental) [5:33]
09. Kill Dich [3:46]
10. Im Namen [4:01]
11. Schlagt Ihm Die Nagel Ein [4:14]
12. Schlafes Bruder (Instrumental) [1:58]
13. Lass Den Stahl Hinein [3:41]
14. Gott Schutzt Dich [3:45]
+ Video:
One Night Stand - Video [04:28]
Stück für Stück - Video [04:38]
Код:
Exact Audio Copy V1.0 beta 3 from 29. August 2011
EAC extraction logfile from 5. June 2012, 23:03
Kash / Feuermord
Used drive  : PLEXTOR BDDVDR PX-B320SA   Adapter: 3  ID: 1
Read mode               : Secure
Utilize accurate stream : Yes
Defeat audio cache      : Yes
Make use of C2 pointers : No
Read offset correction                      : 6
Overread into Lead-In and Lead-Out          : No
Fill up missing offset samples with silence : Yes
Delete leading and trailing silent blocks   : No
Null samples used in CRC calculations       : Yes
Used interface                              : Installed external ASPI interface
Used output format              : User Defined Encoder
Selected bitrate                : 128 kBit/s
Quality                         : High
Add ID3 tag                     : No
Command line compressor         : C:\Program Files (x86)\FLAC\flac.exe
Additional command line options : -V -8 -T "Date=%year%" -T "Genre=%genre%" %source%
TOC of the extracted CD
     Track |   Start  |  Length  | Start sector | End sector
    ---------------------------------------------------------
        1  |  0:00.00 |  4:15.27 |         0    |    19151
        2  |  4:15.27 |  4:40.29 |     19152    |    40180
        3  |  8:55.56 |  5:18.02 |     40181    |    64032
        4  | 14:13.58 |  1:52.23 |     64033    |    72455
        5  | 16:06.06 |  4:08.61 |     72456    |    91116
        6  | 20:14.67 |  4:38.59 |     91117    |   112025
        7  | 24:53.51 |  5:31.38 |    112026    |   136888
        8  | 30:25.14 |  5:33.26 |    136889    |   161889
        9  | 35:58.40 |  3:45.59 |    161890    |   178823
       10  | 39:44.24 |  4:01.00 |    178824    |   196898
       11  | 43:45.24 |  4:14.08 |    196899    |   215956
       12  | 47:59.32 |  1:57.50 |    215957    |   224781
       13  | 49:57.07 |  3:40.44 |    224782    |   241325
       14  | 53:37.51 |  3:44.48 |    241326    |   258173
       15  | 59:54.24 | 19:32.69 |    269574    |   357542
Range status and errors
Selected range
     Filename D:\Kash - Feuermord (2009)\Kash - Feuermord.wav
     Peak level 100.0 %
     Extraction speed 8.0 X
     Range quality 100.0 %
     Test CRC 9932DB51
     Copy CRC 9932DB51
     Copy OK
No errors occurred
AccurateRip summary
Track  1  accurately ripped (confidence 1)  [90113CC5]  (AR v1)
Track  2  accurately ripped (confidence 1)  [D644F201]  (AR v1)
Track  3  accurately ripped (confidence 1)  [A5E89738]  (AR v1)
Track  4  accurately ripped (confidence 1)  [EDD6B9E3]  (AR v1)
Track  5  accurately ripped (confidence 1)  [F4146EDD]  (AR v1)
Track  6  accurately ripped (confidence 1)  [282B74A4]  (AR v1)
Track  7  accurately ripped (confidence 1)  [6C778007]  (AR v1)
Track  8  accurately ripped (confidence 1)  [772C6D5F]  (AR v1)
Track  9  accurately ripped (confidence 1)  [98DDDD08]  (AR v1)
Track 10  accurately ripped (confidence 1)  [854701EC]  (AR v1)
Track 11  accurately ripped (confidence 1)  [9C27C000]  (AR v1)
Track 12  accurately ripped (confidence 1)  [27157593]  (AR v1)
Track 13  accurately ripped (confidence 1)  [5C8F9520]  (AR v1)
Track 14  accurately ripped (confidence 1)  [09002017]  (AR v1)
All tracks accurately ripped
End of status report
==== Log checksum AEBF9D878DED3A505BA7FDEF464A8ADCD88A2F20B56A7C131943CC0A9FFC6D46 ====
Код:
General
Complete name                    : F:\KASH VIDEO One Night Stand.mpg
Format                           : MPEG-PS
File size                        : 84.1 MiB
Duration                         : 4mn 27s
Overall bit rate                 : 2 638 Kbps
Video
ID                               : 224 (0xE0)
Format                           : MPEG Video
Format version                   : Version 2
Format profile                   : Main@Main
Format settings, BVOP            : Yes
Format settings, Matrix          : Custom
Format settings, GOP             : M=3, N=12
Duration                         : 4mn 27s
Bit rate                         : 2 376 Kbps
Width                            : 720 pixels
Height                           : 576 pixels
Display aspect ratio             : 4:3
Frame rate                       : 25.000 fps
Standard                         : PAL
Color space                      : YUV
Chroma subsampling               : 4:2:0
Bit depth                        : 8 bits
Scan type                        : Progressive
Scan order                       : Bottom Field First
Compression mode                 : Lossy
Bits/(Pixel*Frame)               : 0.229
Stream size                      : 75.3 MiB (90%)
Color primaries                  : BT.470-2 System B, BT.470-2 System G
Transfer characteristics         : BT.470-2 System B, BT.470-2 System G
Matrix coefficients              : BT.470-2 System B, BT.470-2 System G
Audio
ID                               : 192 (0xC0)
Format                           : MPEG Audio
Format version                   : Version 1
Format profile                   : Layer 2
Duration                         : 4mn 27s
Bit rate mode                    : Constant
Bit rate                         : 224 Kbps
Channel(s)                       : 2 channels
Sampling rate                    : 48.0 KHz
Compression mode                 : Lossy
Stream size                      : 7.14 MiB (8%)
Код:
General
Complete name                    : F:\KASH VIDEO StГјck fГјr StГјck.mpg
Format                           : MPEG-PS
File size                        : 87.2 MiB
Duration                         : 4mn 37s
Overall bit rate                 : 2 638 Kbps
Video
ID                               : 224 (0xE0)
Format                           : MPEG Video
Format version                   : Version 2
Format profile                   : Main@Main
Format settings, BVOP            : Yes
Format settings, Matrix          : Custom
Format settings, GOP             : M=3, N=12
Duration                         : 4mn 37s
Bit rate                         : 2 376 Kbps
Width                            : 720 pixels
Height                           : 576 pixels
Display aspect ratio             : 4:3
Frame rate                       : 25.000 fps
Standard                         : PAL
Color space                      : YUV
Chroma subsampling               : 4:2:0
Bit depth                        : 8 bits
Scan type                        : Progressive
Scan order                       : Bottom Field First
Compression mode                 : Lossy
Bits/(Pixel*Frame)               : 0.229
Stream size                      : 78.1 MiB (90%)
Color primaries                  : BT.470-2 System B, BT.470-2 System G
Transfer characteristics         : BT.470-2 System B, BT.470-2 System G
Matrix coefficients              : BT.470-2 System B, BT.470-2 System G
Audio
ID                               : 192 (0xC0)
Format                           : MPEG Audio
Format version                   : Version 1
Format profile                   : Layer 2
Duration                         : 4mn 37s
Bit rate mode                    : Constant
Bit rate                         : 224 Kbps
Channel(s)                       : 2 channels
Sampling rate                    : 48.0 KHz
Compression mode                 : Lossy
Stream size                      : 7.41 MiB (8%)
Всё мультимедийное содержимое данного издания помещено в папку Extra.
На оригинале, согласно ТОС, дата-трек находится в конце диска.
Правила, инструкции, FAQ!!!
Торрент  Добавлен [26 июн 2020, 16:52] Скачать торрент Магнет ссылка
Скачать торрент
[ Размер 13.7 КБ / Просмотров 4 ]

Статус
Проверен 
 
Размер  635.42 МБ
Приватный: Нет (DHT включён)
.torrent скачан  0
 


     Отправить личное сообщение
   
Страница 1 из 1
Показать сообщения за:  Поле сортировки  
Начать новую тему Ответить на тему


Сейчас этот форум просматривают: нет зарегистрированных пользователей и гости: 0


Вы не можете начинать темы
Вы не можете отвечать на сообщения
Вы не можете редактировать свои сообщения
Вы не можете удалять свои сообщения
Вы не можете добавлять вложения

Перейти:  
cron