Начать новую тему Ответить на тему
Статистика раздачи
Размер: 505.28 МБ | Добавлен: 26 июн 2020, 16:54 | Скачали: 0
Сидеров: 0  [0 байт/сек]    Личеров: 0  [0 байт/сек]
Пред. тема | След. тема 

Автор
Сообщение

СообщениеДобавлено: 26 июн 2020, 16:54 

Ответить с цитатой 

Kartagon - Natural Instincts
Жанр: EBM / synth pop
Год выпуска диска: 2003
Производитель диска: (Strange Ways Records, Germany)
Аудио кодек: FLAC
Тип рипа: image+.cue
Битрейт аудио: lossless
Продолжительность: 1:04:07.15
Трэклист:
01. The Dawn [1:33]
02. The Hunter [4:45]
03. Pure Love [4:59]
04. 1000 Words [5:44]
05. Final Words [1:20]
06. Free Fall [4:30]
07. Deadly Silence [4:33]
08. Disko Queen [3:55]
09. Flying To The Moon [3:41]
10. A Picture [4:54]
11. First Sight [2:28]
12. Love At First Sight [3:49]
13. Master [5:59]
14. 300'000'000 Dollars [3:01]
15. This Is Not America [3:54]
16. Pure Love (Slowmotion) [5:02]
Источник: Физический носитель
Код:
Exact Audio Copy V0.99 prebeta 5 from 4. May 2009
Отчёт EAC об извлечении, выполненном 6. мая 2010, 21:22
Kartagon / Natural Instincts
Дисковод: Optiarc DVD RW AD-7173A   Adapter: 0  ID: 0
Режим чтения                 : Достоверность
Использование точного потока : Да
Отключение кэша аудио        : Да
Использование указателей C2  : Нет
Коррекция смещения при чтении                     : 48
Способность читать области Lead-in и Lead-out     : Нет
Заполнение пропущенных сэмплов тишиной            : Да
Удаление блоков с тишиной в начале и конце        : Нет
При вычислениях CRC использовались нулевые сэмплы : Да
Интерфейс                                         : Установленный внешний ASPI-интерфейс
Выходной формат          : Пользовательский кодировщик
Выбранный битрейт        : 1024 kBit/s
Качество                 : Высокий
Добавление ID3-тэга      : Нет
Утилита сжатия           : C:\Program Files\Exact Audio Copy\Flac\flac.exe
Дополнительные параметры : -6 -V -T "ARTIST=%a" -T "TITLE=%t" -T "ALBUM=%g" -T "DATE=%y" -T "TRACKNUMBER=%n" -T "GENRE=%m" -T "COMMENT=%e" %s -o %d
TOC извлечённого CD
     Трек |   Старт  | Длительность | Начальный сектор | Конечный сектор
    ---------------------------------------------------------------------
       1  |  0:00.00 |    1:33.22   |           0      |       6996
       2  |  1:33.22 |    4:45.30   |        6997      |      28401
       3  |  6:18.52 |    4:58.58   |       28402      |      50809
       4  | 11:17.35 |    5:43.55   |       50810      |      76589
       5  | 17:01.15 |    1:19.60   |       76590      |      82574
       6  | 18:21.00 |    4:30.22   |       82575      |     102846
       7  | 22:51.22 |    4:32.63   |      102847      |     123309
       8  | 27:24.10 |    3:55.02   |      123310      |     140936
       9  | 31:19.12 |    3:40.63   |      140937      |     157499
      10  | 35:00.00 |    4:54.00   |      157500      |     179549
      11  | 39:54.00 |    2:27.40   |      179550      |     190614
      12  | 42:21.40 |    3:49.10   |      190615      |     207799
      13  | 46:10.50 |    5:58.62   |      207800      |     234711
      14  | 52:09.37 |    3:01.13   |      234712      |     248299
      15  | 55:10.50 |    3:54.25   |      248300      |     265874
      16  | 59:05.00 |    5:02.15   |      265875      |     288539
Характеристики диапазона извлечения и сообщения об ошибках
Выбранный диапазон
     Имя файла H:\СКАЧКА\FLAC\1 TORRENT\Kartagon - Natural Instincts.wav
     Пиковый уровень 99.4 %
     Качество диапазона 99.9 %
     CRC теста 09A61311
     CRC копии 09A61311
     Копирование... OK
Ошибок не произошло
AccurateRip: сводка
Трек  1  точное извлечение (доверие 1)  [91ED9AFD]
Трек  2  точное извлечение (доверие 1)  [33B88A30]
Трек  3  точное извлечение (доверие 1)  [C340886B]
Трек  4  точное извлечение (доверие 1)  [77A7F757]
Трек  5  точное извлечение (доверие 1)  [3BF88B46]
Трек  6  точное извлечение (доверие 1)  [DC0598B9]
Трек  7  точное извлечение (доверие 1)  [B47B56A4]
Трек  8  точное извлечение (доверие 1)  [EB940E92]
Трек  9  точное извлечение (доверие 1)  [6CF5EC9D]
Трек 10  точное извлечение (доверие 1)  [ADC36721]
Трек 11  точное извлечение (доверие 1)  [A1222F05]
Трек 12  точное извлечение (доверие 1)  [303AC931]
Трек 13  точное извлечение (доверие 1)  [47BC670A]
Трек 14  точное извлечение (доверие 1)  [3A291C9A]
Трек 15  точное извлечение (доверие 1)  [2CE7DABD]
Трек 16  точное извлечение (доверие 1)  [FB2D2B41]
Все треки извлечены точно
Конец отчёта
Хочешь скачать, но не можешь из-за отсутствия сидов - пиши в личку!
Правила, инструкции, FAQ!!!
Торрент  Добавлен [26 июн 2020, 16:54] Скачать торрент Магнет ссылка
Скачать торрент
[ Размер 20.85 КБ / Просмотров 4 ]

Статус
Проверен 
 
Размер  505.28 МБ
Приватный: Нет (DHT включён)
.torrent скачан  0
 


     Отправить личное сообщение
   
Страница 1 из 1
Показать сообщения за:  Поле сортировки  
Начать новую тему Ответить на тему


Сейчас этот форум просматривают: нет зарегистрированных пользователей и гости: 0


Вы не можете начинать темы
Вы не можете отвечать на сообщения
Вы не можете редактировать свои сообщения
Вы не можете удалять свои сообщения
Вы не можете добавлять вложения

Перейти:  
cron