Начать новую тему Ответить на тему
Статистика раздачи
Размер: 371.66 МБ | Добавлен: 26 июн 2020, 21:08 | Скачали: 0
Сидеров: 1  [0 байт/сек]    Личеров: 0  [0 байт/сек]
Пред. тема | След. тема 

Автор
Сообщение

СообщениеДобавлено: 26 июн 2020, 21:08 

Ответить с цитатой 

Joke Jay (ex. And One) - Fiasko Deluxe
Жанр: EBM, Synth-pop
Год выпуска диска: 2004
Производитель диска: Германия
Аудио кодек: APE
Тип рипа: image+.cue
Битрейт аудио: lossless
Продолжительность: 00:53:19
Трэклист:
01 - Das Letzte Boot
02 - In Farbe
03 - Das Original
04 - Puppenmaedchen
05 - Die Goldene 80
06 - Verpestet
07 - Angefixxt (Fiasko Mixx)
08 - Der Jugend Kraft
09 - 32 Zacken
10 - Wo Weht Der Wind
11 - Tango 2000 (Von Nichts)
12 - Deine Sonne
Код:
Exact Audio Copy V0.99 prebeta 5 from 4. May 2009
Отчёт EAC об извлечении, выполненном 26. июля 2009, 13:52
Joke Jay / Fiasko Deluxe
Дисковод: Optiarc DVD RW AD-7201S   Adapter: 1  ID: 1
Режим чтения                 : Достоверность
Использование точного потока : Да
Отключение кэша аудио        : Да
Использование указателей C2  : Нет
Коррекция смещения при чтении                     : 48
Способность читать области Lead-in и Lead-out     : Нет
Заполнение пропущенных сэмплов тишиной            : Да
Удаление блоков с тишиной в начале и конце        : Нет
При вычислениях CRC использовались нулевые сэмплы : Да
Интерфейс                                         : Установленный внешний ASPI-интерфейс
Выходной формат : Внутренние WAV-операции
Формат сэмплов  : 44.100 Гц; 16 бит; стерео
TOC извлечённого CD
     Трек |   Старт  | Длительность | Начальный сектор | Конечный сектор
    ---------------------------------------------------------------------
       1  |  0:00.00 |    4:30.08   |           0      |      20257
       2  |  4:30.08 |    3:05.65   |       20258      |      34197
       3  |  7:35.73 |    3:29.43   |       34198      |      49915
       4  | 11:05.41 |    4:12.23   |       49916      |      68838
       5  | 15:17.64 |    3:25.36   |       68839      |      84249
       6  | 18:43.25 |    4:33.62   |       84250      |     104786
       7  | 23:17.12 |    3:33.40   |      104787      |     120801
       8  | 26:50.52 |    4:39.72   |      120802      |     141798
       9  | 31:30.49 |    4:14.09   |      141799      |     160857
      10  | 35:44.58 |    5:46.66   |      160858      |     186873
      11  | 41:31.49 |    3:17.56   |      186874      |     201704
      12  | 44:49.30 |    8:30.10   |      201705      |     239964
Характеристики диапазона извлечения и сообщения об ошибках
Выбранный диапазон
     Имя файла D:\Documents and Settings\Rodexx\Рабочий стол\Joke Jay - Fiasco Deluxe\Joke Jay - Fiasko Deluxe.wav
     Пиковый уровень 98.8 %
     Качество диапазона 100.0 %
     CRC теста FC803A9B
     CRC копии FC803A9B
     Копирование... OK
Ошибок не произошло
Конец отчёта
Label:Wannsee Records
Catalog#:007 101 2 SEE
Format:CD, Album
Country:Germany
Released:04 Oct 2004
Genre:Electronic
Style:EBM, Synth-pop

Бывший участник культовых And One сваял сольный альбом, получилась довольно гремучая смесь от откровенно лёгкого и несерьёзного Electropoр до брутального и мощного Dark Electro, местами перетекающего в синти, в общем классный релиз, особенно для почитателей And One, который, на мой взгляд, потерял довольно многое с уходом Joke Jay
Правила, инструкции, FAQ!!!
Торрент  Добавлен [26 июн 2020, 21:08] Скачать торрент Магнет ссылка
Скачать торрент
[ Размер 15.87 КБ / Просмотров 7 ]

Статус
Проверен 
 
Размер  371.66 МБ
Приватный: Нет (DHT включён)
.torrent скачан  0
 


     Отправить личное сообщение
   
Страница 1 из 1
Показать сообщения за:  Поле сортировки  
Начать новую тему Ответить на тему


Сейчас этот форум просматривают: нет зарегистрированных пользователей и гости: 0


Вы не можете начинать темы
Вы не можете отвечать на сообщения
Вы не можете редактировать свои сообщения
Вы не можете удалять свои сообщения
Вы не можете добавлять вложения

Перейти:  
cron