Начать новую тему Ответить на тему
Статистика раздачи
Размер: 359.72 МБ | Добавлен: 26 июн 2020, 17:03 | Скачали: 0
Сидеров: 0  [0 байт/сек]    Личеров: 0  [0 байт/сек]
Пред. тема | След. тема 

Автор
Сообщение

СообщениеДобавлено: 26 июн 2020, 17:03 

Ответить с цитатой 

Inscape / Neonsonne
Жанр: EBM, Synth Pop, Gothic Electro
Страна-производитель диска: Germany
Год издания диска: 2001
Издатель (лейбл): Out Of Line Records
Номер по каталогу: OUT 065
Страна: Germany
Аудио кодек: FLAC (*.flac)
Тип рипа: image+.cue
Битрейт аудио: lossless
Продолжительность: 00:49:47
Источник (релизер): Физический носитель
Наличие сканов в содержимом раздачи: нет
Треклист:
01. Neonsonne (4:13)
02. Immer Ich (4:16)
03. Mach Mich Kalt (4:25)
04. Leck Mich (3:40)
05. Sinking (3:55)
06. Queenbee (3:49)
07. Down (4:08)
08. Verbrannte Welt (3:53)
09. Vielleicht (4:24)
10. In Deiner Hand (4:53)
11. Lass Mich Rein (4:15)
12. My Darkness (3:59)
Код:
Exact Audio Copy V0.99 prebeta 5 from 4. May 2009
Отчёт EAC об извлечении, выполненном 4. октября 2010, 21:35
Inscape / Neonsonne
Дисковод: _NEC    DVD_RW ND-4550A   Adapter: 0  ID: 2
Режим чтения                 : Достоверность
Использование точного потока : Да
Отключение кэша аудио        : Да
Использование указателей C2  : Нет
Коррекция смещения при чтении                     : 48
Способность читать области Lead-in и Lead-out     : Нет
Заполнение пропущенных сэмплов тишиной            : Да
Удаление блоков с тишиной в начале и конце        : Нет
При вычислениях CRC использовались нулевые сэмплы : Нет
Интерфейс                                         : Встроенный Win32-интерфейс для Win NT/2000
Выходной формат : Внутренние WAV-операции
Формат сэмплов  : 44.100 Гц; 16 бит; стерео
TOC извлечённого CD
     Трек |   Старт  | Длительность | Начальный сектор | Конечный сектор
    ---------------------------------------------------------------------
       1  |  0:00.00 |    4:13.08   |           0      |      18982
       2  |  4:13.08 |    4:16.33   |       18983      |      38215
       3  |  8:29.41 |    4:24.53   |       38216      |      58068
       4  | 12:54.19 |    3:39.45   |       58069      |      74538
       5  | 16:33.64 |    3:55.38   |       74539      |      92201
       6  | 20:29.27 |    3:49.23   |       92202      |     109399
       7  | 24:18.50 |    4:08.05   |      109400      |     128004
       8  | 28:26.55 |    3:53.12   |      128005      |     145491
       9  | 32:19.67 |    4:23.53   |      145492      |     165269
      10  | 36:43.45 |    4:53.15   |      165270      |     187259
      11  | 41:36.60 |    4:15.00   |      187260      |     206384
      12  | 45:51.60 |    3:59.72   |      206385      |     224381
Характеристики диапазона извлечения и сообщения об ошибках
Выбранный диапазон
     Имя файла G:\Inscape - Neonsonne (2001)\Inscape - Neonsonne.wav
     Пиковый уровень 99.4 %
     Качество диапазона 100.0 %
     CRC копии 96FCAE39
     Копирование... OK
Ошибок не произошло
AccurateRip: сводка
Трек  1  точное извлечение (доверие 4)  [D33423F1]
Трек  2  точное извлечение (доверие 4)  [A48FA10F]
Трек  3  точное извлечение (доверие 4)  [79A51817]
Трек  4  точное извлечение (доверие 4)  [524EC02F]
Трек  5  точное извлечение (доверие 4)  [7D4DE7BE]
Трек  6  точное извлечение (доверие 4)  [FF5F3906]
Трек  7  точное извлечение (доверие 4)  [93727761]
Трек  8  точное извлечение (доверие 4)  [6E24C61B]
Трек  9  точное извлечение (доверие 4)  [1AA39968]
Трек 10  точное извлечение (доверие 4)  [FBEAAF71]
Трек 11  точное извлечение (доверие 4)  [39BA290A]
Трек 12  точное извлечение (доверие 4)  [3D647997]
Все треки извлечены точно
Конец отчёта
Код:
REM DISCID A20BAF0C
REM COMMENT "ExactAudioCopy v0.99pb5"
PERFORMER "Inscape"
TITLE "Neonsonne"
FILE "Inscape - Neonsonne.wav" WAVE
  TRACK 01 AUDIO
    TITLE "Neonsonne"
    PERFORMER "Inscape"
    INDEX 01 00:00:00
  TRACK 02 AUDIO
    TITLE "Immer Ich"
    PERFORMER "Inscape"
    INDEX 01 04:13:08
  TRACK 03 AUDIO
    TITLE "Mach Mich Kalt"
    PERFORMER "Inscape"
    INDEX 01 08:29:41
  TRACK 04 AUDIO
    TITLE "Leck Mich"
    PERFORMER "Inscape"
    INDEX 01 12:54:19
  TRACK 05 AUDIO
    TITLE "Sinking"
    PERFORMER "Inscape"
    INDEX 01 16:33:64
  TRACK 06 AUDIO
    TITLE "Queenbee"
    PERFORMER "Inscape"
    INDEX 01 20:29:27
  TRACK 07 AUDIO
    TITLE "Down"
    PERFORMER "Inscape"
    INDEX 01 24:18:50
  TRACK 08 AUDIO
    TITLE "Verbrannte Welt"
    PERFORMER "Inscape"
    INDEX 01 28:26:55
  TRACK 09 AUDIO
    TITLE "Vielleicht"
    PERFORMER "Inscape"
    INDEX 01 32:19:67
  TRACK 10 AUDIO
    TITLE "In Deiner Hand"
    PERFORMER "Inscape"
    INDEX 01 36:43:45
  TRACK 11 AUDIO
    TITLE "Lass Mich Rein"
    PERFORMER "Inscape"
    INDEX 01 41:36:60
  TRACK 12 AUDIO
    TITLE "My Darkness"
    PERFORMER "Inscape"
    INDEX 01 45:51:60
Код:
Started at: понедельник, 04. 10. 2010. - 21:47.05
1 file found
1 -===- G:\Inscape - Neonsonne (2001)\Inscape - Neonsonne.wav
  Conclusion: this track is CDDA with probability 100%
Finished at: понедельник, 04. 10. 2010. - 21:53.01 (operation time: 0:05.55)
Правила, инструкции, FAQ!!!
Торрент  Добавлен [26 июн 2020, 17:03] Скачать торрент Магнет ссылка
Скачать торрент
[ Размер 14.67 КБ / Просмотров 10 ]

Статус
Проверен 
 
Размер  359.72 МБ
Приватный: Нет (DHT включён)
.torrent скачан  0
 


     Отправить личное сообщение
   
Страница 1 из 1
Показать сообщения за:  Поле сортировки  
Начать новую тему Ответить на тему


Сейчас этот форум просматривают: нет зарегистрированных пользователей и гости: 0


Вы не можете начинать темы
Вы не можете отвечать на сообщения
Вы не можете редактировать свои сообщения
Вы не можете удалять свои сообщения
Вы не можете добавлять вложения

Перейти:  
cron