Начать новую тему Ответить на тему
Статистика раздачи
Размер: 504.19 МБ | Добавлен: 26 июн 2020, 16:58 | Скачали: 0
Сидеров: 0  [0 байт/сек]    Личеров: 0  [0 байт/сек]
Пред. тема | След. тема 

Автор
Сообщение

СообщениеДобавлено: 26 июн 2020, 16:58 

Ответить с цитатой 

Backandtotheleft - Obsolete [re-release]
Жанр: EBM, Synth-pop, Futurepop
Страна-производитель диска: USA
Год издания диска: 2005
Издатель (лейбл): Metropolis
Номер по каталогу: MET 386
Страна: USA
Аудио кодек: FLAC (*.flac)
Тип рипа: image+.cue
Битрейт аудио: lossless
Продолжительность: 00:59:04
Источник (релизер): Рип с собственного диска
Наличие сканов в содержимом раздачи: да
Треклист:
01. Misstep (4:54)
02. Conquest (5:27)
03. False Alarm (5:36)
04. Imperfection (5:04)
05. Obsolete (5:30)
06. Disposable (5:20)
07. Heaven's Isolation (5:22)
08. Setting Sun (4:38)
09. The Happy Song (5:31)
10. The Land Of Make-Believe (6:08)
11. Misstep (Assemblage 23 Remix) (5:29)
Код:
Exact Audio Copy V0.99 prebeta 5 from 4. May 2009
Отчёт EAC об извлечении, выполненном 11. сентября 2010, 19:38
Backandtotheleft / Obsolete
Дисковод: Optiarc DVD RW AD-7201S   Adapter: 2  ID: 1
Режим чтения                 : Достоверность
Использование точного потока : Да
Отключение кэша аудио        : Да
Использование указателей C2  : Нет
Коррекция смещения при чтении                     : 48
Способность читать области Lead-in и Lead-out     : Нет
Заполнение пропущенных сэмплов тишиной            : Да
Удаление блоков с тишиной в начале и конце        : Нет
При вычислениях CRC использовались нулевые сэмплы : Да
Интерфейс                                         : Встроенный Win32-интерфейс для Win NT/2000
Выходной формат : Внутренние WAV-операции
Формат сэмплов  : 44.100 Гц; 16 бит; стерео
TOC извлечённого CD
     Трек |   Старт  | Длительность | Начальный сектор | Конечный сектор
    ---------------------------------------------------------------------
       1  |  0:00.00 |    4:54.14   |           0      |      22063
       2  |  4:54.14 |    5:27.50   |       22064      |      46638
       3  | 10:21.64 |    5:36.02   |       46639      |      71840
       4  | 15:57.66 |    5:04.36   |       71841      |      94676
       5  | 21:02.27 |    5:30.22   |       94677      |     119448
       6  | 26:32.49 |    5:20.02   |      119449      |     143450
       7  | 31:52.51 |    5:22.31   |      143451      |     167631
       8  | 37:15.07 |    4:38.61   |      167632      |     188542
       9  | 41:53.68 |    5:31.35   |      188543      |     213402
      10  | 47:25.28 |    6:08.73   |      213403      |     241075
      11  | 53:34.26 |    5:29.48   |      241076      |     265798
Характеристики диапазона извлечения и сообщения об ошибках
Выбранный диапазон
     Имя файла D:\Раздачи\Backandtotheleft - Obsolete\Backandtotheleft - Obsolete.wav
     Пиковый уровень 100.0 %
     Качество диапазона 100.0 %
     CRC теста C76D3460
     CRC копии C76D3460
     Копирование... OK
Ошибок не произошло
Конец отчёта
Код:
Started at: суббота, 11. 09. 2010. - 20:23.56
1 file found
1 -===- D:\Раздачи\Backandtotheleft - Obsolete\Backandtotheleft - Obsolete.flac
  Extracted successfully
  Conclusion: this track is CDDA with probability 100%
  Tempfile successfully deleted.
Finished at: суббота, 11. 09. 2010. - 20:30.15 (operation time: 0:06.19)
Американское трио Backandtotheleft, в составе Darren Miller, Wilhelm и Fritter, было основано в Сиэтле музыкантами, уже сделавшими себе имя участием в electro-industrial проекте Noxious Emotion. После многих лет проведенных с Noxious Emotion, они решили поиграть собственную музыку, двигаясь в направлении таких ebm/futurepop групп как VNV Nation и Assemblage 23.
Первоначально Backandtotheleft не смогли получить контракт на выпуск своего дебютного альбома "Obsolete" со сколь либо значимым лейблом, и тогда Tom Shear из Assemblage 23, веривший в будущее группы, издал диск на своем лейбле 23db летом 2004. Благодаря хорошим отзывам на альбом в прессе, о группе услышали ребята из Metropolis Records и Backandtotheleft сделали еще один шаг к мировой известности. Альбом "Obsolete" был переиздан Metropolis Records в августе 2005.
Музыка Backandtotheleft представляет собой гармоничное сочетание различных стилей: EBM, Synthpop, Futurepop. Таким образом "Obsolete" идеально подойдет как для домашнего прослушивания, так и для клубного танцпола, ведь в звучании этого альбома отразилось все лучшее, что есть в современной электронной музыке: танцевальность и мелодичность, воплощенные в различных настроениях. Иной раз довольно мрачных, иной – абсолютно веселых и "отвязных", но всегда интересных...
Правила, инструкции, FAQ!!!
Торрент  Добавлен [26 июн 2020, 16:58] Скачать торрент Магнет ссылка
Скачать торрент
[ Размер 20.59 КБ / Просмотров 6 ]

Статус
Проверен 
 
Размер  504.19 МБ
Приватный: Нет (DHT включён)
.torrent скачан  0
 


     Отправить личное сообщение
   
Страница 1 из 1
Показать сообщения за:  Поле сортировки  
Начать новую тему Ответить на тему


Сейчас этот форум просматривают: нет зарегистрированных пользователей и гости: 0


Вы не можете начинать темы
Вы не можете отвечать на сообщения
Вы не можете редактировать свои сообщения
Вы не можете удалять свои сообщения
Вы не можете добавлять вложения

Перейти:  
cron