Начать новую тему Ответить на тему
Статистика раздачи
Размер: 643.38 МБ | Добавлен: 26 июн 2020, 19:07 | Скачали: 0
Сидеров: 0  [0 байт/сек]    Личеров: 0  [0 байт/сек]
Пред. тема | След. тема 

Автор
Сообщение

СообщениеДобавлено: 26 июн 2020, 19:07 

Ответить с цитатой 

Syntec - Puppets & Angels
#777
Жанр: EBM, Synth-pop, Electronic
Носитель: CD
Страна-производитель диска: Germany
Год издания: 2016
Дата выхода оригинального издания: 2016
Тип издания: CD, Compilation, Limited Edition (of 1000 copies)
Издатель (лейбл): Infacted Recordings
Серия: Your Alltime Classixx Collection - 35
Номер по каталогу: FACT 3273
Страна: Germany
Аудио кодек: FLAC (*.flac)
Тип рипа: image+.cue
Битрейт аудио: lossless
Продолжительность: 01:06:20
Источник (релизер): Собственный рип
Наличие сканов в содержимом раздачи: да, PNG 600dpiТреклист

01. Talk To The Upper World (Isolated Dance Mix) [03:58]
02. The Blind Love The Blind (Club Mix) [05:11]
03. Hope [04:20]
04. The White Man [04:25]
05. Puppets [04:13]
06. Try To Be Me [03:55]
07. It's A Lie [04:59]
08. Eternity [03:19]
09. Angel (Radio Mix) [03:46]
10. Fruits Of You [04:15]
11. It Takes A Word [04:05]
12. No Brain-No Headache [04:08]
13. Puppets (Club Mix) [06:12]
14. The Blind Love The Blind [03:57]
15. Angel (Club Mix) [05:38]
16. Nowhere Girl (90’s Dancefloor Mix) [03:52]

Код:
 Exact Audio Copy V1.1 from 23. June 2015
Отчёт EAC об извлечении, выполненном 16. июля 2016, 10:48
Syntec / Puppets & Angels (FACT 3273)
Дисковод: PIONEER BD-RW   BDR-206   Adapter: 1  ID: 0
Режим чтения                 : Достоверность
Использование точного потока : Да
Отключение кэша аудио        : Да
Использование указателей C2  : Нет
Коррекция смещения при чтении                     : 667
Способность читать области Lead-in и Lead-out     : Нет
Заполнение пропущенных сэмплов тишиной            : Да
Удаление блоков с тишиной в начале и конце        : Нет
При вычислениях CRC использовались нулевые сэмплы : Да
Интерфейс                                         : Встроенный Win32-интерфейс для Win NT/2000
Выходной формат          : Пользовательский кодировщик
Выбранный битрейт        : 1024 kBit/s
Качество                 : Высокий
Добавление ID3-тега      : Нет
Утилита сжатия           : C:\Program Files (x86)\Exact Audio Copy\FLAC\FLAC.EXE
Дополнительные параметры : -V -8 -T "Date=%year%" -T "COMMENT=Ripped by SergeyJD" -T "Genre=%genre%" %source%
TOC извлечённого CD
     Трек |   Старт  | Длительность | Начальный сектор | Конечный сектор
    ---------------------------------------------------------------------
       1  |  0:00.00 |    3:57.40   |           0      |      17814
       2  |  3:57.40 |    5:10.47   |       17815      |      41111
       3  |  9:08.12 |    4:20.07   |       41112      |      60618
       4  | 13:28.19 |    4:25.01   |       60619      |      80494
       5  | 17:53.20 |    4:13.17   |       80495      |      99486
       6  | 22:06.37 |    3:55.00   |       99487      |     117111
       7  | 26:01.37 |    4:58.50   |      117112      |     139511
       8  | 31:00.12 |    3:18.39   |      139512      |     154400
       9  | 34:18.51 |    3:46.33   |      154401      |     171383
      10  | 38:05.09 |    4:15.21   |      171384      |     190529
      11  | 42:20.30 |    4:05.31   |      190530      |     208935
      12  | 46:25.61 |    4:07.69   |      208936      |     227529
      13  | 50:33.55 |    6:11.72   |      227530      |     255426
      14  | 56:45.52 |    3:57.07   |      255427      |     273208
      15  | 60:42.59 |    5:37.42   |      273209      |     298525
      16  | 66:20.26 |    3:52.32   |      298526      |     315957
Характеристики диапазона извлечения и сообщения об ошибках
Выбранный диапазон
     Имя файла D:\РАЗДАЧИ!!!!\Syntec - Puppets & Angels (FACT 3273) - 2016\Syntec - Puppets & Angels (FACT 3273).wav
     Пиковый уровень 100.0 %
     Скорость извлечения 7.9 X
     Качество диапазона 99.9 %
     CRC теста C1653B3A
     CRC копии C1653B3A
     Копирование... OK
Ошибок не произошло
AccurateRip: сводка
Трек  1  : извлечено точно (доверие 1)  [9AB587A4]  (AR v2)
Трек  2  : извлечено точно (доверие 1)  [E5DAF3B4]  (AR v2)
Трек  3  : извлечено точно (доверие 1)  [ADA585B4]  (AR v2)
Трек  4  : извлечено точно (доверие 1)  [4BE25B31]  (AR v2)
Трек  5  : извлечено точно (доверие 1)  [FCAD4E59]  (AR v2)
Трек  6  : извлечено точно (доверие 1)  [C99B2DF3]  (AR v2)
Трек  7  : извлечено точно (доверие 1)  [11E7DB1F]  (AR v2)
Трек  8  : извлечено точно (доверие 1)  [2B8CD9CA]  (AR v2)
Трек  9  : извлечено точно (доверие 1)  [602DDC6D]  (AR v2)
Трек 10  : извлечено точно (доверие 1)  [9FD1CEB3]  (AR v2)
Трек 11  : извлечено точно (доверие 1)  [94129970]  (AR v2)
Трек 12  : извлечено точно (доверие 1)  [B7F43062]  (AR v2)
Трек 13  : извлечено точно (доверие 1)  [E374AA03]  (AR v2)
Трек 14  : извлечено точно (доверие 1)  [F8E5ADA0]  (AR v2)
Трек 15  : извлечено точно (доверие 1)  [D82BCAF6]  (AR v2)
Трек 16  : извлечено точно (доверие 1)  [0D668527]  (AR v2)
Все треки извлечены точно
Конец отчёта
---- CUETools DB Plugin V2.1.6
[CTDB TOCID: 4oVMlMjK4U7wNw7dgAWYWIhg2Bo-] found
Submit result: 4oVMlMjK4U7wNw7dgAWYWIhg2Bo- has been confirmed
Track | CTDB Status
  1   | (8/8) Accurately ripped
  2   | (8/8) Accurately ripped
  3   | (8/8) Accurately ripped
  4   | (8/8) Accurately ripped
  5   | (8/8) Accurately ripped
  6   | (8/8) Accurately ripped
  7   | (8/8) Accurately ripped
  8   | (8/8) Accurately ripped
  9   | (8/8) Accurately ripped
 10   | (8/8) Accurately ripped
 11   | (8/8) Accurately ripped
 12   | (8/8) Accurately ripped
 13   | (8/8) Accurately ripped
 14   | (8/8) Accurately ripped
 15   | (8/8) Accurately ripped
 16   | (8/8) Accurately ripped
==== Контрольная сумма отчёта 6D19BAC3991B1F3A87CC04CBC3F5CA71005B67F273BA2BD6BDE7038051F0D142 ====
   
Код:
REM GENRE "EBM, Synth-pop, Electronic"
REM DATE 2016
REM DISCID DE107410
REM COMMENT "ExactAudioCopy v1.1"
PERFORMER "Syntec"
TITLE "Puppets & Angels (FACT 3273)"
FILE "Syntec - Puppets & Angels (FACT 3273).flac" WAVE
  TRACK 01 AUDIO
    TITLE "Talk To The Upper World (Isolated Dance Mix)"
    PERFORMER "Syntec"
    INDEX 01 00:00:00
  TRACK 02 AUDIO
    TITLE "The Blind Love The Blind (Club Mix)"
    PERFORMER "Syntec"
    INDEX 00 03:55:43
    INDEX 01 03:57:40
  TRACK 03 AUDIO
    TITLE "Hope"
    PERFORMER "Syntec"
    INDEX 00 09:06:13
    INDEX 01 09:08:12
  TRACK 04 AUDIO
    TITLE "The White Man"
    PERFORMER "Syntec"
    INDEX 00 13:26:20
    INDEX 01 13:28:19
  TRACK 05 AUDIO
    TITLE "Puppets"
    PERFORMER "Syntec"
    INDEX 00 17:51:22
    INDEX 01 17:53:20
  TRACK 06 AUDIO
    TITLE "Try To Be Me"
    PERFORMER "Syntec"
    INDEX 00 22:04:38
    INDEX 01 22:06:37
  TRACK 07 AUDIO
    TITLE "It's A Lie"
    PERFORMER "Syntec"
    INDEX 00 25:59:38
    INDEX 01 26:01:37
  TRACK 08 AUDIO
    TITLE "Eternity"
    PERFORMER "Syntec"
    INDEX 00 30:58:14
    INDEX 01 31:00:12
  TRACK 09 AUDIO
    TITLE "Angel (Radio Mix)"
    PERFORMER "Syntec"
    INDEX 00 34:16:52
    INDEX 01 34:18:51
  TRACK 10 AUDIO
    TITLE "Fruits Of You"
    PERFORMER "Syntec"
    INDEX 00 38:03:10
    INDEX 01 38:05:09
  TRACK 11 AUDIO
    TITLE "It Takes A Word"
    PERFORMER "Syntec"
    INDEX 00 42:18:31
    INDEX 01 42:20:30
  TRACK 12 AUDIO
    TITLE "No Brain-No Headache"
    PERFORMER "Syntec"
    INDEX 00 46:23:64
    INDEX 01 46:25:61
  TRACK 13 AUDIO
    TITLE "Puppets (Club Mix)"
    PERFORMER "Syntec"
    INDEX 00 50:31:57
    INDEX 01 50:33:55
  TRACK 14 AUDIO
    TITLE "The Blind Love The Blind"
    PERFORMER "Syntec"
    INDEX 00 56:43:53
    INDEX 01 56:45:52
  TRACK 15 AUDIO
    TITLE "Angel (Club Mix)"
    PERFORMER "Syntec"
    INDEX 00 60:42:26
    INDEX 01 60:42:59
  TRACK 16 AUDIO
    TITLE "Nowhere Girl (90’s Dancefloor Mix)"
    PERFORMER "Syntec"
    INDEX 00 66:18:28
    INDEX 01 66:20:26
   
Код:
-----------------------
DON'T MODIFY THIS FILE
-----------------------
PERFORMER: auCDtect Task Manager, ver. 1.6.0 RC1 build 1.6.0.1
Copyright (c) 2008-2010 y-soft. All rights reserved
[url=http://y-soft.org]http://y-soft.org[/url]
ANALYZER: auCDtect: CD records authenticity detector, version 0.8.2
Copyright (c) 2004 Oleg Berngardt. All rights reserved.
Copyright (c) 2004 Alexander Djourik. All rights reserved.
FILE: Syntec - Puppets & Angels (FACT 3273).flac
  Size: 517644505 Hash: 40BAF119D0AB29796250D5D48953DE4B Accuracy: -m0
  Conclusion: CDDA 100%
  Signature: A1D051D65AAA7F78F6365CAE9319A3B468FCD5EE
   
Код:
foobar2000 1.2.3 / Замер динамического диапазона (DR) 1.1.1
Дата отчёта: 2016-07-16 11:28:07
--------------------------------------------------------------------------------
Анализ:   Syntec / Puppets & Angels (FACT 3273)
--------------------------------------------------------------------------------
DR         Пики          RMS        Продолжительность трека
--------------------------------------------------------------------------------
DR9       -0.09 дБ   -10.48 дБ      3:58 01-Talk To The Upper World (Isolated Dance Mix)
DR8        0.00 дБ    -9.04 дБ      5:11 02-The Blind Love The Blind (Club Mix)
DR9       -0.05 дБ   -10.82 дБ      4:20 03-Hope
DR7       -1.04 дБ    -9.38 дБ      4:25 04-The White Man
DR9        0.00 дБ   -10.35 дБ      4:13 05-Puppets
DR7       -1.30 дБ    -9.83 дБ      3:55 06-Try To Be Me
DR7        0.00 дБ    -8.72 дБ      4:59 07-It's A Lie
DR9        0.00 дБ   -11.93 дБ      3:19 08-Eternity
DR9        0.00 дБ    -9.66 дБ      3:46 09-Angel (Radio Mix)
DR9       -0.15 дБ   -11.00 дБ      4:15 10-Fruits Of You
DR9        0.00 дБ   -10.14 дБ      4:05 11-It Takes A Word
DR9       -0.04 дБ   -10.12 дБ      4:08 12-No Brain-No Headache
DR8       -0.01 дБ    -9.70 дБ      6:12 13-Puppets (Club Mix)
DR9        0.00 дБ   -10.43 дБ      3:57 14-The Blind Love The Blind
DR8       -0.80 дБ   -10.00 дБ      5:38 15-Angel (Club Mix)
DR7       -2.20 дБ   -10.09 дБ      3:52 16-Nowhere Girl (90’s Dancefloor Mix)
--------------------------------------------------------------------------------
Количество треков: 16
Реальные значения DR: DR8
Частота:  44100 Гц
Каналов:  2
Разрядность:   16
Битрейт:  983 кбит/с
Кодек:   FLAC
================================================================================
   
#777
Syntec возвращаются с компиляцией своих хитов "Puppets & Angels"
Несколько месяцев назад стало известно, что немецкая группа Syntec вернется на electro / pop / EBM сцену. Вскоре после этого коллектив объявил свои первые выступления на фестивале.
И вот, сегодня Уве Калленбах и Тобиас Хартвиг из Syntec представляют нам коллекцию своих лучших хитов, раритетов и неизданного материала в виде компиляции из 16 треков под названием “Puppets & Angels”.
Все композиции, вошедшие в издание, были полностью перезаписаны. “Puppets & Angels” вышел в ограниченном количестве – всего 1000 копий – и уже поступил в продажу.
Но это еще не все, в 2016 году Syntec выпустят совершенно новый альбом.
Syntec считаются первой группой, соединившей синти-поп с электронной танцевальной музыкой.
В оригинальный состав группы входят: Тобиас Хартвиг (вокал и тексты), Уве Калленбах (музыка, синтезатор и программирование) и Йенс Мейер (клавишные).

Релиз для:

Правила, инструкции, FAQ!!!
Торрент  Добавлен [26 июн 2020, 19:07] Скачать торрент Магнет ссылка
Скачать торрент
[ Размер 13.57 КБ / Просмотров 8 ]

Статус
Проверен 
 
Размер  643.38 МБ
Приватный: Нет (DHT включён)
.torrent скачан  0
 


     Отправить личное сообщение
   
Страница 1 из 1
Показать сообщения за:  Поле сортировки  
Начать новую тему Ответить на тему


Сейчас этот форум просматривают: нет зарегистрированных пользователей и гости: 0


Вы не можете начинать темы
Вы не можете отвечать на сообщения
Вы не можете редактировать свои сообщения
Вы не можете удалять свои сообщения
Вы не можете добавлять вложения

Перейти:  
cron