Начать новую тему Ответить на тему
Статистика раздачи
Размер: 434.56 МБ | Добавлен: 26 июн 2020, 20:31 | Скачали: 0
Сидеров: 0  [0 байт/сек]    Личеров: 0  [0 байт/сек]
Пред. тема | След. тема 

Автор
Сообщение

СообщениеДобавлено: 26 июн 2020, 20:31 

Ответить с цитатой 

Drunkness / Rebellion Der Schachfiguren
Жанр: EBM, Synth Pop
Страна-производитель диска: Germany
Год издания диска: 2005
Издатель (лейбл): Rockwerk Records
Номер по каталогу: drunk-005
Страна: Germany
Аудиокодек: FLAC (*.flac)
Тип рипа: image+.cue
Битрейт аудио: lossless
Продолжительность: 0:57:11.48
Источник (релизер): CD из личной коллекции.
Наличие сканов в содержимом раздачи: да
Треклист:
01. W.A.B. 0:30
02. Till The Day When We Will Die 5:05
03. Rebellion Der Schachfiguren 4:28
04. Leave This Place 3:19
05. Secret Sounds 3:58
06. Gravity 2:43
07. Cygnus 4:02
08. Ghost-Track 4:31
09. Die Sonne 3:49
10. Away 4:28
11. Human Error 2:20
12. Nimm Mich 4:30
13. Illusionen 4:03
14. Goodbye 5:03
15. Die Sonne (V3 Remix) 4:00
Discogs
Код:
Exact Audio Copy V0.99 prebeta 5 from 4. May 2009
Отчёт EAC об извлечении, выполненном 31. октября 2011, 10:21
Drunkness / Rebellion Der Schachfiguren
Дисковод: TSSTcorpCDDVDW TS-L632H   Adapter: 0  ID: 0
Режим чтения                 : Достоверность
Использование точного потока : Да
Отключение кэша аудио        : Да
Использование указателей C2  : Нет
Коррекция смещения при чтении                     : 6
Способность читать области Lead-in и Lead-out     : Нет
Заполнение пропущенных сэмплов тишиной            : Да
Удаление блоков с тишиной в начале и конце        : Нет
При вычислениях CRC использовались нулевые сэмплы : Да
Интерфейс                                         : Встроенный Win32-интерфейс для Win NT/2000
Выходной формат          : Пользовательский кодировщик
Выбранный битрейт        : 1024 kBit/s
Качество                 : Высокий
Добавление ID3-тэга      : Нет
Утилита сжатия           : C:\Program Files\Exact Audio Copy\FLAC\FLAC.EXE
Дополнительные параметры : -6 -V -T "ARTIST=%a" -T "TITLE=%t" -T "ALBUM=%g" -T "DATE=%y" -T "TRACKNUMBER=%n" -T "GENRE=%m" -T "COMMENT=%e" %s -o %d
TOC извлечённого CD
     Трек |   Старт  | Длительность | Начальный сектор | Конечный сектор
    ---------------------------------------------------------------------
       1  |  0:00.00 |    0:31.20   |           0      |       2344
       2  |  0:31.20 |    5:07.00   |        2345      |      25369
       3  |  5:38.20 |    4:28.21   |       25370      |      45490
       4  | 10:06.41 |    3:18.19   |       45491      |      60359
       5  | 13:24.60 |    4:00.33   |       60360      |      78392
       6  | 17:25.18 |    2:43.34   |       78393      |      90651
       7  | 20:08.52 |    4:03.70   |       90652      |     108946
       8  | 24:12.47 |    4:33.28   |      108947      |     129449
       9  | 28:46.00 |    3:50.38   |      129450      |     146737
      10  | 32:36.38 |    4:28.05   |      146738      |     166842
      11  | 37:04.43 |    2:19.53   |      166843      |     177320
      12  | 39:24.21 |    4:32.36   |      177321      |     197756
      13  | 43:56.57 |    4:05.17   |      197757      |     216148
      14  | 48:01.74 |    5:08.44   |      216149      |     239292
      15  | 53:10.43 |    4:01.05   |      239293      |     257372
Характеристики диапазона извлечения и сообщения об ошибках
Выбранный диапазон
     Имя файла C:\Users\Алексей\Desktop\iPOD\Drunkness - Rebellion Der Schachfiguren.wav
     Пиковый уровень 100.0 %
     Качество диапазона 100.0 %
     CRC теста 84212298
     CRC копии 84212298
     Копирование... OK
Ошибок не произошло
AccurateRip: сводка
Трек  1  точное извлечение (доверие 1)  [8E6D18B7]
Трек  2  точное извлечение (доверие 1)  [C5D8FEED]
Трек  3  точное извлечение (доверие 1)  [C8490BE5]
Трек  4  точное извлечение (доверие 1)  [2F15240B]
Трек  5  точное извлечение (доверие 1)  [90D45247]
Трек  6  точное извлечение (доверие 1)  [20D5B9C6]
Трек  7  точное извлечение (доверие 1)  [E3215B99]
Трек  8  точное извлечение (доверие 1)  [A230BD22]
Трек  9  точное извлечение (доверие 1)  [440048E8]
Трек 10  точное извлечение (доверие 1)  [41C68B9D]
Трек 11  точное извлечение (доверие 1)  [81C49361]
Трек 12  точное извлечение (доверие 1)  [ACF8DF2B]
Трек 13  точное извлечение (доверие 1)  [A4356B84]
Трек 14  точное извлечение (доверие 1)  [4B47AFE7]
Трек 15  точное извлечение (доверие 1)  [A4D6F525]
Все треки извлечены точно
Конец отчёта
Код:
REM GENRE Electronic
REM DATE 2005
REM DISCID C60D670F
REM COMMENT "ExactAudioCopy v0.99pb5"
PERFORMER "Drunkness"
TITLE "Rebellion Der Schachfiguren"
FILE "Drunkness - Rebellion Der Schachfiguren.flac" WAVE
  TRACK 01 AUDIO
    TITLE "W.A.B."
    PERFORMER "Drunkness"
    FLAGS DCP
    INDEX 01 00:00:00
  TRACK 02 AUDIO
    TITLE "Till the day when we will die"
    PERFORMER "Drunkness"
    FLAGS DCP
    INDEX 01 00:31:20
  TRACK 03 AUDIO
    TITLE "Rebellion der Schachfiguren"
    PERFORMER "Drunkness"
    FLAGS DCP
    INDEX 00 05:36:20
    INDEX 01 05:38:20
  TRACK 04 AUDIO
    TITLE "Leave this place"
    PERFORMER "Drunkness"
    FLAGS DCP
    INDEX 01 10:06:41
  TRACK 05 AUDIO
    TITLE "Secret sounds"
    PERFORMER "Drunkness"
    FLAGS DCP
    INDEX 01 13:24:60
  TRACK 06 AUDIO
    TITLE "Gravity"
    PERFORMER "Drunkness"
    FLAGS DCP
    INDEX 00 17:23:17
    INDEX 01 17:25:18
  TRACK 07 AUDIO
    TITLE "Cygnus"
    PERFORMER "Drunkness"
    FLAGS DCP
    INDEX 01 20:08:52
  TRACK 08 AUDIO
    TITLE "Ghost-track"
    PERFORMER "Drunkness"
    FLAGS DCP
    INDEX 00 24:10:44
    INDEX 01 24:12:47
  TRACK 09 AUDIO
    TITLE "Die Sonne"
    PERFORMER "Drunkness"
    FLAGS DCP
    INDEX 00 28:44:00
    INDEX 01 28:46:00
  TRACK 10 AUDIO
    TITLE "Away"
    PERFORMER "Drunkness"
    FLAGS DCP
    INDEX 00 32:34:38
    INDEX 01 32:36:38
  TRACK 11 AUDIO
    TITLE "Human error"
    PERFORMER "Drunkness"
    FLAGS DCP
    INDEX 01 37:04:43
  TRACK 12 AUDIO
    TITLE "Nimm mich!"
    PERFORMER "Drunkness"
    FLAGS DCP
    INDEX 01 39:24:21
  TRACK 13 AUDIO
    TITLE "Illusionen"
    PERFORMER "Drunkness"
    FLAGS DCP
    INDEX 00 43:54:53
    INDEX 01 43:56:57
  TRACK 14 AUDIO
    TITLE "Goodbye"
    PERFORMER "Drunkness"
    FLAGS DCP
    INDEX 00 47:59:74
    INDEX 01 48:01:74
  TRACK 15 AUDIO
    TITLE "Die Sonne (V3 Remix)"
    PERFORMER "Drunkness"
    FLAGS DCP
    INDEX 00 53:08:43
    INDEX 01 53:10:43
Код:
[url=https://fastpic.ru/view/27/2012/0205/6ba70230646017bb443481da639ddeed.jpg.html][img]http://i27.fastpic.ru/thumb/2012/0205/ed/6ba70230646017bb443481da639ddeed.jpeg[/img][/url][url=https://fastpic.ru/view/28/2012/0205/328d81619d514140cdedcd7e1c0bc549.jpg.html][img]http://i28.fastpic.ru/thumb/2012/0205/49/328d81619d514140cdedcd7e1c0bc549.jpeg[/img][/url][url=https://fastpic.ru/view/30/2012/0205/a5e627ec3303a858e196d5721c2053c8.jpg.html][img]http://i30.fastpic.ru/thumb/2012/0205/c8/a5e627ec3303a858e196d5721c2053c8.jpeg[/img][/url][url=https://fastpic.ru/view/29/2012/0205/3e008735c5abe7479faadd4837b0740d.jpg.html][img]http://i29.fastpic.ru/thumb/2012/0205/0d/3e008735c5abe7479faadd4837b0740d.jpeg[/img][/url]
Правила, инструкции, FAQ!!!
Торрент  Добавлен [26 июн 2020, 20:31] Скачать торрент Магнет ссылка
Скачать торрент
[ Размер 18.33 КБ / Просмотров 5 ]

Статус
Проверен 
 
Размер  434.56 МБ
Приватный: Нет (DHT включён)
.torrent скачан  0
 


     Отправить личное сообщение
   
Страница 1 из 1
Показать сообщения за:  Поле сортировки  
Начать новую тему Ответить на тему


Сейчас этот форум просматривают: нет зарегистрированных пользователей и гости: 0


Вы не можете начинать темы
Вы не можете отвечать на сообщения
Вы не можете редактировать свои сообщения
Вы не можете удалять свои сообщения
Вы не можете добавлять вложения

Перейти:  
cron