Начать новую тему Ответить на тему
Статистика раздачи
Размер: 1010.68 МБ | Добавлен: 26 июн 2020, 20:41 | Скачали: 1
Сидеров: 2  [0 байт/сек]    Личеров: 1  [0 байт/сек]
Пред. тема | След. тема 

Автор
Сообщение

СообщениеДобавлено: 26 июн 2020, 20:41 

Ответить с цитатой 

Diffuzion / Body Code (Limited Edition)
Жанр: EBM, Synth-pop
Год издания диска: 2008
Издатель (лейбл): Alfa Matrix
Номер по каталогу: AM-2110DCD
Страна: Belgium
Аудиокодек: FLAC (*.flac)
Тип рипа: tracks+.cue
Битрейт аудио: lossless
Продолжительность: 02:11:02
Источник (релизер): What.cd
Наличие сканов в содержимом раздачи: нет
Треклист:
1.01 Falling 4:17
1.02 Wired Tunes 3:34
1.03 One Way 4:34
1.04 Our Wings Are Gone (EFF DST Rmx) 4:34
1.05 No Fear 4:08
1.06 No Passive Isolation 5:28
1.07 Satellites 3:51
1.08 Delicious 4:57
1.09 Fire 4:27
1.10 She 3:49
1.11 Round 4:26
1.12 Join The Game 4:12
1.13 Trapped 4:16
1.14 Wondering 4:39
Limited Edition Bonus CD
2.01 Our Wings Are Gone 5:26
2.02 Fire (EFF DST Rmx) 4:37
2.03 Falling (Original Version) 4:58
2.04 Frozen 4:48
2.05 Roads To My Land 4:58
2.06 Wired Tunes (Ex.Es Rmx) 4:53
2.07 One Way (Acylum Rmx) 5:15
2.08 Delicious (Essence Of Mind Rmx) 4:34
2.09 One Way (Individual Totem Rmx) 5:44
2.10 No Fear (Implant Rmx) 4:22
2.11 Delicious (Cervello Elettronico Rmx) 4:30
2.12 Wired Tunes (Complex Mind Rmx) 4:12
2.13 No Fear (Psy'aviah Rmx) 5:36
2.14 One Way (Uberbyte Remix) 5:31
Код:
Exact Audio Copy V0.99 prebeta 5 from 4. May 2009
EAC extraction logfile from 15. May 2009, 20:22
Diffuzion / Body Code disc 1
Used drive  :   JLMS  DVD-ROM LTD-166S   Adapter: 0  ID: 1
Read mode               : Secure
Utilize accurate stream : Yes
Defeat audio cache      : Yes
Make use of C2 pointers : No
Read offset correction                      : 12
Overread into Lead-In and Lead-Out          : No
Fill up missing offset samples with silence : Yes
Delete leading and trailing silent blocks   : No
Null samples used in CRC calculations       : Yes
Used interface                              : Native Win32 interface for Win NT & 2000
Gap handling                                : Appended to previous track
Used output format              : User Defined Encoder
Selected bitrate                : 192 kBit/s
Quality                         : High
Add ID3 tag                     : No
Command line compressor         : C:\Program Files\Exact Audio Copy\Flac\flac.exe
Additional command line options : -V -8 -T "artist=%a" -T "title=%t" -T "album=%g" -T "date=%y" -T "tracknumber=%n" -T "genre=%m" %s
TOC of the extracted CD
     Track |   Start  |  Length  | Start sector | End sector
    ---------------------------------------------------------
        1  |  0:00.00 |  4:17.19 |         0    |    19293
        2  |  4:17.19 |  3:46.60 |     19294    |    36303
        3  |  8:04.04 |  4:34.67 |     36304    |    56920
        4  | 12:38.71 |  4:34.25 |     56921    |    77495
        5  | 17:13.21 |  4:08.43 |     77496    |    96138
        6  | 21:21.64 |  5:28.13 |     96139    |   120751
        7  | 26:50.02 |  3:51.72 |    120752    |   138148
        8  | 30:41.74 |  4:57.43 |    138149    |   160466
        9  | 35:39.42 |  4:27.38 |    160467    |   180529
       10  | 40:07.05 |  3:49.67 |    180530    |   197771
       11  | 43:56.72 |  4:26.07 |    197772    |   217728
       12  | 48:23.04 |  4:12.41 |    217729    |   236669
       13  | 52:35.45 |  4:16.34 |    236670    |   255903
       14  | 56:52.04 |  4:40.22 |    255904    |   276925
Track  1
     Filename G:\Mine\my documents\My Music\EAC rips\flac\Diffuzion - 2008 - Body Code disc 1\Diffuzion - 2008 - Body Code disc 1 - 01 - Falling.wav
     Pre-gap length  0:00:02.00
     Peak level 100.0 %
     Track quality 100.0 %
     Test CRC 1452DA2E
     Copy CRC 1452DA2E
     Accurately ripped (confidence 1)  [2C00EDEC]
     Copy OK
Track  2
     Filename G:\Mine\my documents\My Music\EAC rips\flac\Diffuzion - 2008 - Body Code disc 1\Diffuzion - 2008 - Body Code disc 1 - 02 - Wired Tunes.wav
     Pre-gap length  0:00:02.00
     Peak level 100.0 %
     Track quality 99.9 %
     Test CRC 2B965CA0
     Copy CRC 2B965CA0
     Accurately ripped (confidence 1)  [DF307BAB]
     Copy OK
Track  3
     Filename G:\Mine\my documents\My Music\EAC rips\flac\Diffuzion - 2008 - Body Code disc 1\Diffuzion - 2008 - Body Code disc 1 - 03 - One Way.wav
     Pre-gap length  0:00:02.00
     Peak level 100.0 %
     Track quality 100.0 %
     Test CRC DEB21048
     Copy CRC DEB21048
     Accurately ripped (confidence 1)  [561C5119]
     Copy OK
Track  4
     Filename G:\Mine\my documents\My Music\EAC rips\flac\Diffuzion - 2008 - Body Code disc 1\Diffuzion - 2008 - Body Code disc 1 - 04 - Our Wings Are Gone (EFF DST rmx).wav
     Pre-gap length  0:00:02.00
     Peak level 100.0 %
     Track quality 100.0 %
     Test CRC 6D900069
     Copy CRC 6D900069
     Accurately ripped (confidence 1)  [CFB6746D]
     Copy OK
Track  5
     Filename G:\Mine\my documents\My Music\EAC rips\flac\Diffuzion - 2008 - Body Code disc 1\Diffuzion - 2008 - Body Code disc 1 - 05 - No Fear.wav
     Pre-gap length  0:00:02.00
     Peak level 100.0 %
     Track quality 100.0 %
     Test CRC 8C656FC5
     Copy CRC 8C656FC5
     Accurately ripped (confidence 1)  [EE894829]
     Copy OK
Track  6
     Filename G:\Mine\my documents\My Music\EAC rips\flac\Diffuzion - 2008 - Body Code disc 1\Diffuzion - 2008 - Body Code disc 1 - 06 - No Passive Isolation.wav
     Pre-gap length  0:00:02.00
     Peak level 100.0 %
     Track quality 100.0 %
     Test CRC 1E0699C6
     Copy CRC 1E0699C6
     Accurately ripped (confidence 1)  [F0871A42]
     Copy OK
Track  7
     Filename G:\Mine\my documents\My Music\EAC rips\flac\Diffuzion - 2008 - Body Code disc 1\Diffuzion - 2008 - Body Code disc 1 - 07 - Satellites.wav
     Pre-gap length  0:00:02.00
     Peak level 100.0 %
     Track quality 100.0 %
     Test CRC 0EE648A1
     Copy CRC 0EE648A1
     Accurately ripped (confidence 1)  [15961426]
     Copy OK
Track  8
     Filename G:\Mine\my documents\My Music\EAC rips\flac\Diffuzion - 2008 - Body Code disc 1\Diffuzion - 2008 - Body Code disc 1 - 08 - Delicious.wav
     Pre-gap length  0:00:02.00
     Peak level 100.0 %
     Track quality 100.0 %
     Test CRC 26903BF8
     Copy CRC 26903BF8
     Accurately ripped (confidence 1)  [83494D07]
     Copy OK
Track  9
     Filename G:\Mine\my documents\My Music\EAC rips\flac\Diffuzion - 2008 - Body Code disc 1\Diffuzion - 2008 - Body Code disc 1 - 09 - Fire.wav
     Pre-gap length  0:00:02.00
     Peak level 100.0 %
     Track quality 100.0 %
     Test CRC 9D924D83
     Copy CRC 9D924D83
     Accurately ripped (confidence 1)  [5B8D9109]
     Copy OK
Track 10
     Filename G:\Mine\my documents\My Music\EAC rips\flac\Diffuzion - 2008 - Body Code disc 1\Diffuzion - 2008 - Body Code disc 1 - 10 - She.wav
     Pre-gap length  0:00:02.00
     Peak level 100.0 %
     Track quality 100.0 %
     Test CRC 2151CE4F
     Copy CRC 2151CE4F
     Accurately ripped (confidence 1)  [52328041]
     Copy OK
Track 11
     Filename G:\Mine\my documents\My Music\EAC rips\flac\Diffuzion - 2008 - Body Code disc 1\Diffuzion - 2008 - Body Code disc 1 - 11 - Round.wav
     Pre-gap length  0:00:02.00
     Peak level 100.0 %
     Track quality 100.0 %
     Test CRC A550F4CF
     Copy CRC A550F4CF
     Accurately ripped (confidence 1)  [F87C63BE]
     Copy OK
Track 12
     Filename G:\Mine\my documents\My Music\EAC rips\flac\Diffuzion - 2008 - Body Code disc 1\Diffuzion - 2008 - Body Code disc 1 - 12 - Join The Game.wav
     Pre-gap length  0:00:02.00
     Peak level 100.0 %
     Track quality 100.0 %
     Test CRC BF95CC99
     Copy CRC BF95CC99
     Accurately ripped (confidence 1)  [C12DAB5B]
     Copy OK
Track 13
     Filename G:\Mine\my documents\My Music\EAC rips\flac\Diffuzion - 2008 - Body Code disc 1\Diffuzion - 2008 - Body Code disc 1 - 13 - Trapped.wav
     Pre-gap length  0:00:02.00
     Peak level 100.0 %
     Track quality 100.0 %
     Test CRC C17CEB11
     Copy CRC C17CEB11
     Accurately ripped (confidence 1)  [9F31CD6D]
     Copy OK
Track 14
     Filename G:\Mine\my documents\My Music\EAC rips\flac\Diffuzion - 2008 - Body Code disc 1\Diffuzion - 2008 - Body Code disc 1 - 14 - Wondering.wav
     Pre-gap length  0:00:02.00
     Peak level 100.0 %
     Track quality 100.0 %
     Test CRC 5193F38A
     Copy CRC 5193F38A
     Accurately ripped (confidence 1)  [DFBF9118]
     Copy OK
All tracks accurately ripped
No errors occurred
End of status report
Код:
REM GENRE Electronic
REM DATE 2008
REM DISCID B80E6C0E
REM COMMENT "ExactAudioCopy v0.99pb5"
PERFORMER "Diffuzion"
TITLE "Body Code disc 1"
FILE "Diffuzion - 2008 - Body Code disc 1 - 01 - Falling.wav" WAVE
  TRACK 01 AUDIO
    TITLE "Falling "
    PERFORMER "Diffuzion"
    FLAGS DCP
    INDEX 01 00:00:00
  TRACK 02 AUDIO
    TITLE "Wired Tunes"
    PERFORMER "Diffuzion"
    FLAGS DCP
    INDEX 00 04:15:19
FILE "Diffuzion - 2008 - Body Code disc 1 - 02 - Wired Tunes.wav" WAVE
    INDEX 01 00:00:00
  TRACK 03 AUDIO
    TITLE "One Way"
    PERFORMER "Diffuzion"
    FLAGS DCP
    INDEX 00 03:44:60
FILE "Diffuzion - 2008 - Body Code disc 1 - 03 - One Way.wav" WAVE
    INDEX 01 00:00:00
  TRACK 04 AUDIO
    TITLE "Our Wings Are Gone (EFF DST rmx)"
    PERFORMER "Diffuzion"
    FLAGS DCP
    INDEX 00 04:32:67
FILE "Diffuzion - 2008 - Body Code disc 1 - 04 - Our Wings Are Gone (EFF DST rmx).wav" WAVE
    INDEX 01 00:00:00
  TRACK 05 AUDIO
    TITLE "No Fear"
    PERFORMER "Diffuzion"
    FLAGS DCP
    INDEX 00 04:32:25
FILE "Diffuzion - 2008 - Body Code disc 1 - 05 - No Fear.wav" WAVE
    INDEX 01 00:00:00
  TRACK 06 AUDIO
    TITLE "No Passive Isolation"
    PERFORMER "Diffuzion"
    FLAGS DCP
    INDEX 00 04:06:43
FILE "Diffuzion - 2008 - Body Code disc 1 - 06 - No Passive Isolation.wav" WAVE
    INDEX 01 00:00:00
  TRACK 07 AUDIO
    TITLE "Satellites"
    PERFORMER "Diffuzion"
    FLAGS DCP
    INDEX 00 05:26:13
FILE "Diffuzion - 2008 - Body Code disc 1 - 07 - Satellites.wav" WAVE
    INDEX 01 00:00:00
  TRACK 08 AUDIO
    TITLE "Delicious"
    PERFORMER "Diffuzion"
    FLAGS DCP
    INDEX 00 03:49:72
FILE "Diffuzion - 2008 - Body Code disc 1 - 08 - Delicious.wav" WAVE
    INDEX 01 00:00:00
  TRACK 09 AUDIO
    TITLE "Fire"
    PERFORMER "Diffuzion"
    FLAGS DCP
    INDEX 00 04:55:43
FILE "Diffuzion - 2008 - Body Code disc 1 - 09 - Fire.wav" WAVE
    INDEX 01 00:00:00
  TRACK 10 AUDIO
    TITLE "She "
    PERFORMER "Diffuzion"
    FLAGS DCP
    INDEX 00 04:25:38
FILE "Diffuzion - 2008 - Body Code disc 1 - 10 - She.wav" WAVE
    INDEX 01 00:00:00
  TRACK 11 AUDIO
    TITLE "Round"
    PERFORMER "Diffuzion"
    FLAGS DCP
    INDEX 00 03:47:67
FILE "Diffuzion - 2008 - Body Code disc 1 - 11 - Round.wav" WAVE
    INDEX 01 00:00:00
  TRACK 12 AUDIO
    TITLE "Join The Game"
    PERFORMER "Diffuzion"
    FLAGS DCP
    INDEX 00 04:24:07
FILE "Diffuzion - 2008 - Body Code disc 1 - 12 - Join The Game.wav" WAVE
    INDEX 01 00:00:00
  TRACK 13 AUDIO
    TITLE "Trapped"
    PERFORMER "Diffuzion"
    FLAGS DCP
    INDEX 00 04:10:41
FILE "Diffuzion - 2008 - Body Code disc 1 - 13 - Trapped.wav" WAVE
    INDEX 01 00:00:00
  TRACK 14 AUDIO
    TITLE "Wondering"
    PERFORMER "Diffuzion"
    FLAGS DCP
    INDEX 00 04:14:34
FILE "Diffuzion - 2008 - Body Code disc 1 - 14 - Wondering.wav" WAVE
    INDEX 01 00:00:00
Код:
Exact Audio Copy V0.99 prebeta 5 from 4. May 2009
EAC extraction logfile from 15. May 2009, 21:09
Diffuzion / Body Code disc 2
Used drive  :   JLMS  DVD-ROM LTD-166S   Adapter: 0  ID: 1
Read mode               : Secure
Utilize accurate stream : Yes
Defeat audio cache      : Yes
Make use of C2 pointers : No
Read offset correction                      : 12
Overread into Lead-In and Lead-Out          : No
Fill up missing offset samples with silence : Yes
Delete leading and trailing silent blocks   : No
Null samples used in CRC calculations       : Yes
Used interface                              : Native Win32 interface for Win NT & 2000
Gap handling                                : Appended to previous track
Used output format              : User Defined Encoder
Selected bitrate                : 192 kBit/s
Quality                         : High
Add ID3 tag                     : No
Command line compressor         : C:\Program Files\Exact Audio Copy\Flac\flac.exe
Additional command line options : -V -8 -T "artist=%a" -T "title=%t" -T "album=%g" -T "date=%y" -T "tracknumber=%n" -T "genre=%m" %s
TOC of the extracted CD
     Track |   Start  |  Length  | Start sector | End sector
    ---------------------------------------------------------
        1  |  0:00.00 |  5:26.45 |         0    |    24494
        2  |  5:26.45 |  4:37.16 |     24495    |    45285
        3  | 10:03.61 |  4:58.61 |     45286    |    67696
        4  | 15:02.47 |  4:48.28 |     67697    |    89324
        5  | 19:51.00 |  4:58.52 |     89325    |   111726
        6  | 24:49.52 |  4:53.06 |    111727    |   133707
        7  | 29:42.58 |  5:15.54 |    133708    |   157386
        8  | 34:58.37 |  4:34.64 |    157387    |   178000
        9  | 39:33.26 |  5:44.12 |    178001    |   203812
       10  | 45:17.38 |  4:22.11 |    203813    |   223473
       11  | 49:39.49 |  4:30.10 |    223474    |   243733
       12  | 54:09.59 |  4:12.05 |    243734    |   262638
       13  | 58:21.64 |  5:36.72 |    262639    |   287910
       14  | 63:58.61 |  5:31.47 |    287911    |   312782
Track  1
     Filename G:\Mine\my documents\My Music\EAC rips\flac\Diffuzion - 2008 - Body Code disc 2\Diffuzion - 2008 - Body Code disc 2 - 01 - Our Wings Are Gone.wav
     Pre-gap length  0:00:02.00
     Peak level 100.0 %
     Track quality 100.0 %
     Test CRC C5BF9F38
     Copy CRC C5BF9F38
     Accurately ripped (confidence 1)  [F382801A]
     Copy OK
Track  2
     Filename G:\Mine\my documents\My Music\EAC rips\flac\Diffuzion - 2008 - Body Code disc 2\Diffuzion - 2008 - Body Code disc 2 - 02 - Fire (EFF DST rmx).wav
     Pre-gap length  0:00:02.00
     Peak level 100.0 %
     Track quality 100.0 %
     Test CRC AEBADA25
     Copy CRC AEBADA25
     Accurately ripped (confidence 1)  [F837E86D]
     Copy OK
Track  3
     Filename G:\Mine\my documents\My Music\EAC rips\flac\Diffuzion - 2008 - Body Code disc 2\Diffuzion - 2008 - Body Code disc 2 - 03 - Falling (original version).wav
     Pre-gap length  0:00:02.00
     Peak level 100.0 %
     Track quality 100.0 %
     Test CRC CEB371A9
     Copy CRC CEB371A9
     Accurately ripped (confidence 1)  [92282715]
     Copy OK
Track  4
     Filename G:\Mine\my documents\My Music\EAC rips\flac\Diffuzion - 2008 - Body Code disc 2\Diffuzion - 2008 - Body Code disc 2 - 04 - Frozen.wav
     Pre-gap length  0:00:02.00
     Peak level 100.0 %
     Track quality 100.0 %
     Test CRC E7BDEDBC
     Copy CRC E7BDEDBC
     Accurately ripped (confidence 1)  [E91EA7E0]
     Copy OK
Track  5
     Filename G:\Mine\my documents\My Music\EAC rips\flac\Diffuzion - 2008 - Body Code disc 2\Diffuzion - 2008 - Body Code disc 2 - 05 - Roads To My Land.wav
     Pre-gap length  0:00:02.00
     Peak level 100.0 %
     Track quality 100.0 %
     Test CRC 67E79100
     Copy CRC 67E79100
     Accurately ripped (confidence 1)  [5925F633]
     Copy OK
Track  6
     Filename G:\Mine\my documents\My Music\EAC rips\flac\Diffuzion - 2008 - Body Code disc 2\Diffuzion - 2008 - Body Code disc 2 - 06 - Wired Tunes (EX.ES rmx).wav
     Pre-gap length  0:00:02.00
     Peak level 100.0 %
     Track quality 100.0 %
     Test CRC F44E830B
     Copy CRC F44E830B
     Accurately ripped (confidence 1)  [DFDA1CD9]
     Copy OK
Track  7
     Filename G:\Mine\my documents\My Music\EAC rips\flac\Diffuzion - 2008 - Body Code disc 2\Diffuzion - 2008 - Body Code disc 2 - 07 - One Way (ACYLUM rmx).wav
     Pre-gap length  0:00:02.00
     Peak level 100.0 %
     Track quality 100.0 %
     Test CRC F7D5546D
     Copy CRC F7D5546D
     Accurately ripped (confidence 1)  [9F148396]
     Copy OK
Track  8
     Filename G:\Mine\my documents\My Music\EAC rips\flac\Diffuzion - 2008 - Body Code disc 2\Diffuzion - 2008 - Body Code disc 2 - 08 - Delicious (ESSENCE OF MIND rmx).wav
     Pre-gap length  0:00:02.00
     Peak level 100.0 %
     Track quality 100.0 %
     Test CRC 6900A2F6
     Copy CRC 6900A2F6
     Accurately ripped (confidence 1)  [40351D85]
     Copy OK
Track  9
     Filename G:\Mine\my documents\My Music\EAC rips\flac\Diffuzion - 2008 - Body Code disc 2\Diffuzion - 2008 - Body Code disc 2 - 09 - One Way (INDIVIDUAL TOTEM rmx).wav
     Pre-gap length  0:00:02.00
     Peak level 100.0 %
     Track quality 100.0 %
     Test CRC 89E6A175
     Copy CRC 89E6A175
     Accurately ripped (confidence 1)  [947B0234]
     Copy OK
Track 10
     Filename G:\Mine\my documents\My Music\EAC rips\flac\Diffuzion - 2008 - Body Code disc 2\Diffuzion - 2008 - Body Code disc 2 - 10 - No Fear (IMPLANT rmx).wav
     Pre-gap length  0:00:02.00
     Peak level 100.0 %
     Track quality 100.0 %
     Test CRC 06F67B2D
     Copy CRC 06F67B2D
     Accurately ripped (confidence 1)  [81A3E3CA]
     Copy OK
Track 11
     Filename G:\Mine\my documents\My Music\EAC rips\flac\Diffuzion - 2008 - Body Code disc 2\Diffuzion - 2008 - Body Code disc 2 - 11 - Delicious (CERVELLO ELETTRONICO rmx).wav
     Pre-gap length  0:00:02.00
     Peak level 100.0 %
     Track quality 100.0 %
     Test CRC 75BABE91
     Copy CRC 75BABE91
     Accurately ripped (confidence 1)  [6A85B6C1]
     Copy OK
Track 12
     Filename G:\Mine\my documents\My Music\EAC rips\flac\Diffuzion - 2008 - Body Code disc 2\Diffuzion - 2008 - Body Code disc 2 - 12 - Wired Tunes (COMPLEX MIND rmx).wav
     Pre-gap length  0:00:02.00
     Peak level 100.0 %
     Track quality 100.0 %
     Test CRC 12B40002
     Copy CRC 12B40002
     Accurately ripped (confidence 1)  [8C675445]
     Copy OK
Track 13
     Filename G:\Mine\my documents\My Music\EAC rips\flac\Diffuzion - 2008 - Body Code disc 2\Diffuzion - 2008 - Body Code disc 2 - 13 - No Fear (PSY’AVIAH rmx).wav
     Pre-gap length  0:00:02.00
     Peak level 100.0 %
     Track quality 100.0 %
     Test CRC 564C8DA3
     Copy CRC 564C8DA3
     Accurately ripped (confidence 1)  [25C47431]
     Copy OK
Track 14
     Filename G:\Mine\my documents\My Music\EAC rips\flac\Diffuzion - 2008 - Body Code disc 2\Diffuzion - 2008 - Body Code disc 2 - 14 - One way (UBERBYTE remix).wav
     Pre-gap length  0:00:02.00
     Peak level 100.0 %
     Track quality 100.0 %
     Test CRC 5D2A648A
     Copy CRC 5D2A648A
     Accurately ripped (confidence 1)  [07D5702B]
     Copy OK
All tracks accurately ripped
No errors occurred
End of status report
Код:
REM GENRE Electronic
REM DATE 2008
REM DISCID B8104A0E
REM COMMENT "ExactAudioCopy v0.99pb5"
PERFORMER "Diffuzion"
TITLE "Body Code disc 2"
FILE "Diffuzion - 2008 - Body Code disc 2 - 01 - Our Wings Are Gone.wav" WAVE
  TRACK 01 AUDIO
    TITLE "Our Wings Are Gone"
    PERFORMER "Diffuzion"
    FLAGS DCP
    INDEX 01 00:00:00
  TRACK 02 AUDIO
    TITLE "Fire (EFF DST rmx)"
    PERFORMER "Diffuzion"
    FLAGS DCP
    INDEX 00 05:24:45
FILE "Diffuzion - 2008 - Body Code disc 2 - 02 - Fire (EFF DST rmx).wav" WAVE
    INDEX 01 00:00:00
  TRACK 03 AUDIO
    TITLE "Falling (original version)"
    PERFORMER "Diffuzion"
    FLAGS DCP
    INDEX 00 04:35:16
FILE "Diffuzion - 2008 - Body Code disc 2 - 03 - Falling (original version).wav" WAVE
    INDEX 01 00:00:00
  TRACK 04 AUDIO
    TITLE "Frozen"
    PERFORMER "Diffuzion"
    FLAGS DCP
    INDEX 00 04:56:61
FILE "Diffuzion - 2008 - Body Code disc 2 - 04 - Frozen.wav" WAVE
    INDEX 01 00:00:00
  TRACK 05 AUDIO
    TITLE "Roads To My Land"
    PERFORMER "Diffuzion"
    FLAGS DCP
    INDEX 00 04:46:28
FILE "Diffuzion - 2008 - Body Code disc 2 - 05 - Roads To My Land.wav" WAVE
    INDEX 01 00:00:00
  TRACK 06 AUDIO
    TITLE "Wired Tunes (EX.ES rmx)"
    PERFORMER "Diffuzion"
    FLAGS DCP
    INDEX 00 04:56:52
FILE "Diffuzion - 2008 - Body Code disc 2 - 06 - Wired Tunes (EX.ES rmx).wav" WAVE
    INDEX 01 00:00:00
  TRACK 07 AUDIO
    TITLE "One Way (ACYLUM rmx)"
    PERFORMER "Diffuzion"
    FLAGS DCP
    INDEX 00 04:51:06
FILE "Diffuzion - 2008 - Body Code disc 2 - 07 - One Way (ACYLUM rmx).wav" WAVE
    INDEX 01 00:00:00
  TRACK 08 AUDIO
    TITLE "Delicious (ESSENCE OF MIND rmx)"
    PERFORMER "Diffuzion"
    FLAGS DCP
    INDEX 00 05:13:54
FILE "Diffuzion - 2008 - Body Code disc 2 - 08 - Delicious (ESSENCE OF MIND rmx).wav" WAVE
    INDEX 01 00:00:00
  TRACK 09 AUDIO
    TITLE "One Way (INDIVIDUAL TOTEM rmx)"
    PERFORMER "Diffuzion"
    FLAGS DCP
    INDEX 00 04:32:64
FILE "Diffuzion - 2008 - Body Code disc 2 - 09 - One Way (INDIVIDUAL TOTEM rmx).wav" WAVE
    INDEX 01 00:00:00
  TRACK 10 AUDIO
    TITLE "No Fear (IMPLANT rmx)"
    PERFORMER "Diffuzion"
    FLAGS DCP
    INDEX 00 05:42:12
FILE "Diffuzion - 2008 - Body Code disc 2 - 10 - No Fear (IMPLANT rmx).wav" WAVE
    INDEX 01 00:00:00
  TRACK 11 AUDIO
    TITLE "Delicious (CERVELLO ELETTRONICO rmx)"
    PERFORMER "Diffuzion"
    FLAGS DCP
    INDEX 00 04:20:11
FILE "Diffuzion - 2008 - Body Code disc 2 - 11 - Delicious (CERVELLO ELETTRONICO rmx).wav" WAVE
    INDEX 01 00:00:00
  TRACK 12 AUDIO
    TITLE "Wired Tunes (COMPLEX MIND rmx)"
    PERFORMER "Diffuzion"
    FLAGS DCP
    INDEX 00 04:28:10
FILE "Diffuzion - 2008 - Body Code disc 2 - 12 - Wired Tunes (COMPLEX MIND rmx).wav" WAVE
    INDEX 01 00:00:00
  TRACK 13 AUDIO
    TITLE "No Fear (PSY’AVIAH rmx)"
    PERFORMER "Diffuzion"
    FLAGS DCP
    INDEX 00 04:10:05
FILE "Diffuzion - 2008 - Body Code disc 2 - 13 - No Fear (PSY’AVIAH rmx).wav" WAVE
    INDEX 01 00:00:00
  TRACK 14 AUDIO
    TITLE "One way (UBERBYTE remix)"
    PERFORMER "Diffuzion"
    FLAGS DCP
    INDEX 00 05:34:72
FILE "Diffuzion - 2008 - Body Code disc 2 - 14 - One way (UBERBYTE remix).wav" WAVE
    INDEX 01 00:00:00
Правила, инструкции, FAQ!!!
Торрент  Добавлен [26 июн 2020, 20:41] Скачать торрент Магнет ссылка
Скачать торрент
[ Размер 23.4 КБ / Просмотров 23 ]

Статус
Проверен 
 
Размер  1010.68 МБ
Приватный: Нет (DHT включён)
.torrent скачан  1
 


     Отправить личное сообщение
   
Страница 1 из 1
Показать сообщения за:  Поле сортировки  
Начать новую тему Ответить на тему


Сейчас этот форум просматривают: нет зарегистрированных пользователей и гости: 0


Вы не можете начинать темы
Вы не можете отвечать на сообщения
Вы не можете редактировать свои сообщения
Вы не можете удалять свои сообщения
Вы не можете добавлять вложения

Перейти:  
cron