Начать новую тему Ответить на тему
Статистика раздачи
Размер: 397.54 МБ | Добавлен: 26 июн 2020, 16:54 | Скачали: 0
Сидеров: 0  [0 байт/сек]    Личеров: 0  [0 байт/сек]
Пред. тема | След. тема 

Автор
Сообщение

СообщениеДобавлено: 26 июн 2020, 16:54 

Ответить с цитатой 

Dekoy - Redux-Heartwerk V2
Жанр: EBM / synth pop
Год выпуска диска: 2004
Производитель диска: (Cemetery47, USA)
Аудио кодек: FLAC
Тип рипа: image+.cue
Битрейт аудио: lossless
Продолжительность: 52:20.43
Трэклист:
01. Intro [1:02]
02. Silent Space [4:33]
03. Salvation [3:59]
04. Your Heart [4:18]
05. Shatter [4:38]
06. Free [5:20]
07. I Will Remember [3:30]
08. I Live Again [5:01]
09. Take The Pain [4:18]
10. Shoot To Kill [3:59]
11. Darkest Eve [5:41]
12. Submission [5:04]
13. Outro [0:59]
Код:
Exact Audio Copy V0.99 prebeta 4 from 23. January 2008
Отчёт EAC об извлечении, выполненном 23. апреля 2009, 9:06
Dekoy / Redux - Heartwerk V2
Дисковод: Optiarc DVD RW AD-7170A   Adapter: 0  ID: 0
Режим чтения                 : Достоверность
Использование точного потока : Да
Отключение кэша аудио        : Да
Использование указателей C2  : Нет
Коррекция смещения при чтении                     : 48
Способность читать области Lead-in и Lead-out     : Нет
Заполнение пропущенных сэмплов тишиной            : Да
Удаление блоков с тишиной в начале и конце        : Нет
При вычислениях CRC использовались нулевые сэмплы : Да
Интерфейс                                         : Встроенный Win32-интерфейс для Win NT/2000
Выходной формат          : Пользовательский кодировщик
Выбранный битрейт        : 1024 kBit/s
Качество                 : Высокий
Добавление ID3-тэга      : Нет
Утилита сжатия           : C:\Program Files\Exact Audio Copy\FLAC\FLAC.EXE
Дополнительные параметры : -6 -V -T "ARTIST=%a" -T "TITLE=%t" -T "ALBUM=%g" -T "DATE=%y" -T "TRACKNUMBER=%n" -T "GENRE=%m" -T "COMMENT=%e" %s -o %d
TOC извлечённого CD
     Трек |   Старт  | Длительность | Начальный сектор | Конечный сектор
    ---------------------------------------------------------------------
       1  |  0:00.00 |    1:01.38   |           0      |       4612
       2  |  1:01.38 |    4:33.16   |        4613      |      25103
       3  |  5:34.54 |    3:58.47   |       25104      |      43000
       4  |  9:33.26 |    4:18.08   |       43001      |      62358
       5  | 13:51.34 |    4:37.59   |       62359      |      83192
       6  | 18:29.18 |    5:20.07   |       83193      |     107199
       7  | 23:49.25 |    3:29.39   |      107200      |     122913
       8  | 27:18.64 |    5:00.41   |      122914      |     145454
       9  | 32:19.30 |    4:17.73   |      145455      |     164802
      10  | 36:37.28 |    3:59.25   |      164803      |     182752
      11  | 40:36.53 |    5:40.39   |      182753      |     208291
      12  | 46:17.17 |    5:04.00   |      208292      |     231091
      13  | 51:21.17 |    0:59.26   |      231092      |     235542
Характеристики диапазона извлечения и сообщения об ошибках
Выбранный диапазон
     Имя файла D:\Мои документы\Dekoy - Redux - Heartwerk V2.wav
     Пиковый уровень 100.0 %
     Качество диапазона 100.0 %
     CRC теста 4D82F64B
     CRC копии 4D82F64B
     Копирование... OK
Ошибок не произошло
Конец отчёта
Правила, инструкции, FAQ!!!
Торрент  Добавлен [26 июн 2020, 16:54] Скачать торрент Магнет ссылка
Скачать торрент
[ Размер 16.42 КБ / Просмотров 5 ]

Статус
Проверен 
 
Размер  397.54 МБ
Приватный: Нет (DHT включён)
.torrent скачан  0
 


     Отправить личное сообщение
   
Страница 1 из 1
Показать сообщения за:  Поле сортировки  
Начать новую тему Ответить на тему


Сейчас этот форум просматривают: нет зарегистрированных пользователей и гости: 0


Вы не можете начинать темы
Вы не можете отвечать на сообщения
Вы не можете редактировать свои сообщения
Вы не можете удалять свои сообщения
Вы не можете добавлять вложения

Перейти:  
cron