Начать новую тему Ответить на тему
Статистика раздачи
Размер: 262.12 МБ | Добавлен: 26 июн 2020, 16:48 | Скачали: 0
Сидеров: 0  [0 байт/сек]    Личеров: 0  [0 байт/сек]
Пред. тема | След. тема 

Автор
Сообщение

СообщениеДобавлено: 26 июн 2020, 16:48 

Ответить с цитатой 

Dekoy - Haunted
Жанр: EBM / synth pop
Год выпуска диска: 2006
Производитель диска: (Cemetery47, USA)
Аудио кодек: FLAC
Тип рипа: image+.cue
Битрейт аудио: lossless
Продолжительность: 40:29.30
Трэклист:
01. Onset [1:26]
02. Red [4:31]
03. Looking Down [3:47]
04. Phone Call [0:52]
05. Clairaudient [3:42]
06. Dance With Me [4:14]
07. Haunted [5:05]
08. Spider's Web [4:07]
09. Reel [3:22]
10. No Return [4:12]
11. Morgue [1:44]
12. Outset [2:19]
13. Untitled Track [1:09]
Код:
Exact Audio Copy V0.99 prebeta 4 from 23. January 2008
Отчёт EAC об извлечении, выполненном 3. апреля 2009, 13:01
Dekoy / Haunted
Дисковод: Optiarc DVD RW AD-7170A   Adapter: 0  ID: 0
Режим чтения                 : Достоверность
Использование точного потока : Да
Отключение кэша аудио        : Да
Использование указателей C2  : Нет
Коррекция смещения при чтении                     : 48
Способность читать области Lead-in и Lead-out     : Нет
Заполнение пропущенных сэмплов тишиной            : Да
Удаление блоков с тишиной в начале и конце        : Нет
При вычислениях CRC использовались нулевые сэмплы : Да
Интерфейс                                         : Встроенный Win32-интерфейс для Win NT/2000
Выходной формат          : Пользовательский кодировщик
Выбранный битрейт        : 1024 kBit/s
Качество                 : Высокий
Добавление ID3-тэга      : Нет
Утилита сжатия           : C:\Program Files\Exact Audio Copy\FLAC\FLAC.EXE
Дополнительные параметры : -6 -V -T "ARTIST=%a" -T "TITLE=%t" -T "ALBUM=%g" -T "DATE=%y" -T "TRACKNUMBER=%n" -T "GENRE=%m" -T "COMMENT=%e" %s -o %d
TOC извлечённого CD
     Трек |   Старт  | Длительность | Начальный сектор | Конечный сектор
    ---------------------------------------------------------------------
       1  |  0:00.00 |    1:26.03   |           0      |       6452
       2  |  1:26.03 |    4:30.44   |        6453      |      26746
       3  |  5:56.47 |    3:46.47   |       26747      |      43743
       4  |  9:43.19 |    0:52.15   |       43744      |      47658
       5  | 10:35.34 |    3:41.72   |       47659      |      64305
       6  | 14:17.31 |    4:14.04   |       64306      |      83359
       7  | 18:31.35 |    5:04.55   |       83360      |     106214
       8  | 23:36.15 |    4:06.58   |      106215      |     124722
       9  | 27:42.73 |    3:22.04   |      124723      |     139876
      10  | 31:05.02 |    4:11.46   |      139877      |     158747
      11  | 35:16.48 |    1:44.14   |      158748      |     166561
      12  | 37:00.62 |    2:19.23   |      166562      |     177009
      13  | 39:20.10 |    1:09.20   |      177010      |     182204
Характеристики диапазона извлечения и сообщения об ошибках
Выбранный диапазон
     Имя файла D:\Мои документы\Dekoy - Haunted.wav
     Пиковый уровень 100.0 %
     Качество диапазона 99.9 %
     CRC теста 77975B01
     CRC копии 77975B01
     Копирование... OK
Ошибок не произошло
Конец отчёта
Правила, инструкции, FAQ!!!
Торрент  Добавлен [26 июн 2020, 16:48] Скачать торрент Магнет ссылка
Скачать торрент
[ Размер 10.99 КБ / Просмотров 5 ]

Статус
Проверен 
 
Размер  262.12 МБ
Приватный: Нет (DHT включён)
.torrent скачан  0
 


     Отправить личное сообщение
   
Страница 1 из 1
Показать сообщения за:  Поле сортировки  
Начать новую тему Ответить на тему


Сейчас этот форум просматривают: нет зарегистрированных пользователей и гости: 0


Вы не можете начинать темы
Вы не можете отвечать на сообщения
Вы не можете редактировать свои сообщения
Вы не можете удалять свои сообщения
Вы не можете добавлять вложения

Перейти:  
cron