Начать новую тему Ответить на тему
Статистика раздачи
Размер: 172.52 МБ | Добавлен: 26 июн 2020, 16:52 | Скачали: 0
Сидеров: 0  [0 байт/сек]    Личеров: 0  [0 байт/сек]
Пред. тема | След. тема 

Автор
Сообщение

СообщениеДобавлено: 26 июн 2020, 16:52 

Ответить с цитатой 

Collapsed System - Blute Jetzt!


Жанр: EBM, Synth Pop
Носитель: CD
Год издания: 1999
Издатель (лейбл): Nova Tekk / Eraser
Номер по каталогу: CDS 90112-08 / ERA-12
Страна исполнителя (группы): Germany
Аудиокодек: FLAC (*.flac)
Тип рипа: image+.cue
Битрейт аудио: lossless
Продолжительность: 00:22:08
Источник (релизер): termoflex
Наличие сканов : да
Треклист:
01. Blute Jetzt! (S. Naghavi Sein Mix) [00:04:57]
02. You're In My Head (Leipzig-Remix) [00:04:22]
03. Blute Jetzt! (Funker Vogt-Remix) [00:04:39]
04. Blute Jetzt! (Original Demo Mix) [00:03:59]
05. Emotional Man (Tucken Mix) [00:04:06]


Код:
Exact Audio Copy V1.0 beta 3 from 29. August 2011
Отчёт EAC об извлечении, выполненном 2. ноября 2014, 12:42
Collapsed System / Blute Jetzt!
Дисковод: hp      DVD-RAM UJ8B1   Adapter: 0  ID: 2
Режим чтения                 : Достоверность
Использование точного потока : Да
Отключение кэша аудио        : Да
Использование указателей C2  : Нет
Коррекция смещения при чтении                     : 6
Способность читать области Lead-in и Lead-out     : Нет
Заполнение пропущенных сэмплов тишиной            : Да
Удаление блоков с тишиной в начале и конце        : Нет
При вычислениях CRC использовались нулевые сэмплы : Да
Интерфейс                                         : Встроенный Win32-интерфейс для Win NT/2000
Выходной формат          : Пользовательский кодировщик
Выбранный битрейт        : 1024 kBit/s
Качество                 : Высокий
Добавление ID3-тега      : Нет
Утилита сжатия           : C:\Program Files (x86)\Exact Audio Copy\FLAC\FLAC.EXE
Дополнительные параметры : -V -8 -T "Date=%year%" -T "Genre=%genre%" -T "Comment=ripped by termoflex" %source%
TOC извлечённого CD
     Трек |   Старт  | Длительность | Начальный сектор | Конечный сектор
    ---------------------------------------------------------------------
       1  |  0:00.00 |    4:57.67   |           0      |      22341
       2  |  4:57.67 |    4:23.58   |       22342      |      42124
       3  |  9:21.50 |    4:39.57   |       42125      |      63106
       4  | 14:01.32 |    3:59.73   |       63107      |      81104
       5  | 18:01.30 |    4:06.72   |       81105      |      99626
Характеристики диапазона извлечения и сообщения об ошибках
Выбранный диапазон
     Имя файла C:\Users\HP\Desktop\Music\Collapsed System - Blute Jetzt!.wav
     Пиковый уровень 100.0 %
     Скорость извлечения 3.4 X
     Качество диапазона 99.9 %
     CRC теста 88E78A75
     CRC копии 88E78A75
     Копирование... OK
Ошибок не произошло
AccurateRip: сводка
Трек  1  : извлечено точно (доверие 1)  [9B829368]  (AR v2)
Трек  2  : извлечено точно (доверие 1)  [77DF2669]  (AR v2)
Трек  3  : извлечено точно (доверие 1)  [917D3971]  (AR v2)
Трек  4  : извлечено точно (доверие 1)  [2D542804]  (AR v2)
Трек  5  : извлечено точно (доверие 1)  [B89BE817]  (AR v2)
Все треки извлечены точно
Конец отчёта
---- CUETools DB Plugin V2.1.4
[CTDB TOCID: 0JW7roiYWviTQQ6dtT_7L2w0olY-] found
Submit result: 0JW7roiYWviTQQ6dtT_7L2w0olY- has been confirmed
Track | CTDB Status
  1   | (2/2) Accurately ripped
  2   | (2/2) Accurately ripped
  3   | (2/2) Accurately ripped
  4   | (2/2) Accurately ripped
  5   | (2/2) Accurately ripped
==== Контрольная сумма отчёта CAEDD0E987ABD7900B38053DC898226B74DDEE21B0BEB5CD05F5B8780BBA9C6B ====
Код:
REM GENRE EBM
REM DATE 1999
REM DISCID 3F053005
REM COMMENT "ExactAudioCopy v1.0b3"
PERFORMER "Collapsed System"
TITLE "Blute Jetzt!"
FILE "Collapsed System - Blute Jetzt!.flac" WAVE
  TRACK 01 AUDIO
    TITLE "Blute Jetzt! (S. Naghavi Sein Mix)"
    PERFORMER "Collapsed System"
    INDEX 01 00:00:00
  TRACK 02 AUDIO
    TITLE "You're In My Head (Leipzig-Remix)"
    PERFORMER "Collapsed System"
    INDEX 00 04:57:52
    INDEX 01 04:57:67
  TRACK 03 AUDIO
    TITLE "Blute Jetzt! (Funker Vogt-Remix)"
    PERFORMER "Collapsed System"
    INDEX 00 09:20:52
    INDEX 01 09:21:50
  TRACK 04 AUDIO
    TITLE "Blute Jetzt! (Original Demo Mix)"
    PERFORMER "Collapsed System"
    INDEX 00 14:00:50
    INDEX 01 14:01:32
  TRACK 05 AUDIO
    TITLE "Emotional Man (Tucken Mix)"
    PERFORMER "Collapsed System"
    INDEX 00 18:00:52
    INDEX 01 18:01:30
Код:
-----------------------
DON'T MODIFY THIS FILE
-----------------------
PERFORMER: auCDtect Task Manager, ver. 1.5.1RC6 build 1.5.1.7
Copyright (c) 2008-2010 y-soft. All rights reserved
[url=http://y-soft.org]http://y-soft.org[/url]
ANALYZER: auCDtect: CD records authenticity detector, version 0.8.2
Copyright (c) 2004 Oleg Berngardt. All rights reserved.
Copyright (c) 2004 Alexander Djourik. All rights reserved.
FILE: Collapsed System - Blute Jetzt!.flac
  Size: 155716305 Hash: 57733DBE76875CFAAC8AF0178F2D6B8C Accuracy: -m0
  Conclusion: CDDA 100%
  Signature: 11F8D5F2C57EBD567ADB4411E76B6A2E922CFEB6
Правила, инструкции, FAQ!!!
Торрент  Добавлен [26 июн 2020, 16:52] Скачать торрент Магнет ссылка
Скачать торрент
[ Размер 14.49 КБ / Просмотров 4 ]

Статус
Проверен 
 
Размер  172.52 МБ
Приватный: Нет (DHT включён)
.torrent скачан  0
 


     Отправить личное сообщение
   
Страница 1 из 1
Показать сообщения за:  Поле сортировки  
Начать новую тему Ответить на тему


Сейчас этот форум просматривают: нет зарегистрированных пользователей и гости: 0


Вы не можете начинать темы
Вы не можете отвечать на сообщения
Вы не можете редактировать свои сообщения
Вы не можете удалять свои сообщения
Вы не можете добавлять вложения

Перейти:  
cron