Начать новую тему Ответить на тему
Статистика раздачи
Размер: 301.57 МБ | Добавлен: 26 июн 2020, 17:16 | Скачали: 0
Сидеров: 0  [0 байт/сек]    Личеров: 12  [0 байт/сек]
Пред. тема | След. тема 

Автор
Сообщение

СообщениеДобавлено: 26 июн 2020, 17:16 

Ответить с цитатой 

Blitzmaschine / Liebe Auf Den Ersten Blick
Жанр: EBM, Synth-pop
Страна-производитель диска: Germany
Год издания диска: 2011
Издатель (лейбл): Danse Macabre
Номер по каталогу: 404256412
Аудио кодек: FLAC (*.flac)
Тип рипа: image+.cue
Битрейт аудио: lossless
Продолжительность: 16:52
Источник (релизер): оригинальный диск
Наличие сканов в содержимом раздачи: да
Треклист:
1. Liebe Auf Den Ersten Blick 3:29
2. Blondes Mädchen (Sex Mix) 3:42
3. Blute Jetzt! (Snoob Mix) 4:55
4. Blute Jetzt! (Danish Dub Mix) 4:46
Video: Liebe Auf Den Ersten Blick
Код:
Exact Audio Copy V1.0 beta 1 from 15. November 2010
EAC extraction logfile from 25. May 2011, 11:41
Blitzmaschine / Liebe Auf Den Ersten Blick
Used drive  : ASUS    DRW-1814BLT   Adapter: 3  ID: 0
Read mode               : Secure
Utilize accurate stream : Yes
Defeat audio cache      : Yes
Make use of C2 pointers : No
Read offset correction                      : 6
Overread into Lead-In and Lead-Out          : No
Fill up missing offset samples with silence : Yes
Delete leading and trailing silent blocks   : No
Null samples used in CRC calculations       : Yes
Used interface                              : Native Win32 interface for Win NT & 2000
Used output format              : User Defined Encoder
Selected bitrate                : 1024 kBit/s
Quality                         : High
Add ID3 tag                     : No
Command line compressor         : C:\Program Files\Exact Audio Copy\FLAC\FLAC.EXE
Additional command line options : -T "DATE=%y" -T "GENRE=%m" -8 -V %s
TOC of the extracted CD
     Track |   Start  |  Length  | Start sector | End sector
    ---------------------------------------------------------
        1  |  0:00.00 |  3:28.39 |         0    |    15638
        2  |  3:28.39 |  3:42.18 |     15639    |    32306
        3  |  7:10.57 |  4:55.12 |     32307    |    54443
        4  | 12:05.69 |  4:46.05 |     54444    |    75898
        5  | 19:23.74 | 20:19.54 |     87299    |   178777
Range status and errors
Selected range
     Filename D:\Blitzmaschine - Liebe Auf Den Ersten Blick.wav
     Peak level 97.7 %
     Extraction speed 5.3 X
     Range quality 100.0 %
     Test CRC 89C2BFA4
     Copy CRC 89C2BFA4
     Copy OK
No errors occurred
AccurateRip summary
Track  1  not present in database
Track  2  not present in database
Track  3  not present in database
Track  4  not present in database
None of the tracks are present in the AccurateRip database
End of status report
Код:
Format                           : Windows Media
File size                        : 179 MiB
Duration                         : 3mn 30s
Overall bit rate                 : 7 132 Kbps
Video:
Format                           : VC-1
Format profile                   : MP
Codec ID                         : WMV3
Codec ID/Info                    : Windows Media Video 9
Codec ID/Hint                    : WMV3
Description of the codec         : Windows Media Video V9 - 1280 x 720, 25.00 fps, Q=90 (VBR)
Duration                         : 3mn 30s
Bit rate                         : 6 991 Kbps
Width                            : 1 280 pixels
Height                           : 720 pixels
Display aspect ratio             : 16:9
Frame rate                       : 25.000 fps
Bit depth                        : 8 bits
Scan type                        : Progressive
Compression mode                 : Lossy
Bits/(Pixel*Frame)               : 0.303
Stream size                      : 175 MiB (98%)
Language                         : English (US)
Audio:
Format                           : WMA
Format version                   : Version 2
Codec ID                         : 161
Codec ID/Info                    : Windows Media Audio
Description of the codec         : Windows Media Audio V9 Standard - 128 kbps, 44 kHz, 16 bit, Stereo (CBR)
Duration                         : 3mn 30s
Bit rate mode                    : Variable
Bit rate                         : 128 Kbps
Channel(s)                       : 2 channels
Sampling rate                    : 44.1 KHz
Bit depth                        : 16 bits
Stream size                      : 3.21 MiB (2%)
Language                         : English (US)


Правила, инструкции, FAQ!!!
Торрент  Добавлен [26 июн 2020, 17:16] Скачать торрент Магнет ссылка
Скачать торрент
[ Размер 12.64 КБ / Просмотров 15 ]

Статус
Проверен 
 
Размер  301.57 МБ
Приватный: Нет (DHT включён)
.torrent скачан  0
 


     Отправить личное сообщение
   
Страница 1 из 1
Показать сообщения за:  Поле сортировки  
Начать новую тему Ответить на тему


Сейчас этот форум просматривают: нет зарегистрированных пользователей и гости: 0


Вы не можете начинать темы
Вы не можете отвечать на сообщения
Вы не можете редактировать свои сообщения
Вы не можете удалять свои сообщения
Вы не можете добавлять вложения

Перейти:  
cron