Начать новую тему Ответить на тему
Статистика раздачи
Размер: 382.35 МБ | Добавлен: 26 июн 2020, 16:51 | Скачали: 0
Сидеров: 0  [0 байт/сек]    Личеров: 0  [0 байт/сек]
Пред. тема | След. тема 

Автор
Сообщение

СообщениеДобавлено: 26 июн 2020, 16:51 

Ответить с цитатой 

Blitzmaschine / Faustrecht
Жанр: EBM, Synth-pop
Страна-производитель диска: Germany
Год издания диска: 2011
Издатель (лейбл): Danse Macabre
Номер по каталогу: 12290
Аудио кодек: FLAC (*.flac)
Тип рипа: image+.cue
Битрейт аудио: lossless
Продолжительность: 53:36
Источник (релизер): оригинальный диск
Наличие сканов в содержимом раздачи: да
Треклист:
1. Swallow Me 3:19
2. Love And Pain 3:26
3. Am I Right 4:09
4. Useless Pain 3:55
5. Propaganda 3:16
6. Kämpf Um Mich 3:47
7. Do Not 3:38
8. Blondes Mädchen (Album Version) 4:02
9. Was Hasst Du? 3:16
10. Heartbreaker 3:25
11. Vorwärts 3:50
12. Immer Kleiner 4:38
13. Living A Lie 4:26
14. Emotional Man 4:28
Код:
Exact Audio Copy V1.0 beta 1 from 15. November 2010
EAC extraction logfile from 6. May 2011, 10:45
Blitzmaschine / Faustrecht
Used drive  : ASUS    DRW-1814BLT   Adapter: 3  ID: 0
Read mode               : Secure
Utilize accurate stream : Yes
Defeat audio cache      : Yes
Make use of C2 pointers : No
Read offset correction                      : 6
Overread into Lead-In and Lead-Out          : No
Fill up missing offset samples with silence : Yes
Delete leading and trailing silent blocks   : No
Null samples used in CRC calculations       : Yes
Used interface                              : Native Win32 interface for Win NT & 2000
Used output format              : User Defined Encoder
Selected bitrate                : 1024 kBit/s
Quality                         : High
Add ID3 tag                     : No
Command line compressor         : C:\Program Files\Exact Audio Copy\FLAC\FLAC.EXE
Additional command line options : -T "DATE=%y" -T "GENRE=%m" -8 -V %s
TOC of the extracted CD
     Track |   Start  |  Length  | Start sector | End sector
    ---------------------------------------------------------
        1  |  0:00.00 |  3:19.15 |         0    |    14939
        2  |  3:19.15 |  3:26.29 |     14940    |    30418
        3  |  6:45.44 |  4:09.15 |     30419    |    49108
        4  | 10:54.59 |  3:55.00 |     49109    |    66733
        5  | 14:49.59 |  3:16.11 |     66734    |    81444
        6  | 18:05.70 |  3:46.40 |     81445    |    98434
        7  | 21:52.35 |  3:38.00 |     98435    |   114784
        8  | 25:30.35 |  4:02.00 |    114785    |   132934
        9  | 29:32.35 |  3:15.50 |    132935    |   147609
       10  | 32:48.10 |  3:25.00 |    147610    |   162984
       11  | 36:13.10 |  3:50.17 |    162985    |   180251
       12  | 40:03.27 |  4:38.36 |    180252    |   201137
       13  | 44:41.63 |  4:25.71 |    201138    |   221083
       14  | 49:07.59 |  4:28.31 |    221084    |   241214
Range status and errors
Selected range
     Filename D:\Blitzmaschine - Faustrecht.wav
     Peak level 98.8 %
     Extraction speed 0.3 X
     Range quality 100.0 %
     Test CRC 4200D3A4
     Copy CRC 4200D3A4
     Copy OK
No errors occurred
AccurateRip summary
Track  1  not present in database
Track  2  not present in database
Track  3  not present in database
Track  4  not present in database
Track  5  not present in database
Track  6  not present in database
Track  7  not present in database
Track  8  not present in database
Track  9  not present in database
Track 10  not present in database
Track 11  not present in database
Track 12  not present in database
Track 13  not present in database
Track 14  not present in database
None of the tracks are present in the AccurateRip database
End of status report
Доп. информация: EBM für die Mittelschicht.

Внимание. Торрент перезалит 13.05.11. Заменен cue.
Правила, инструкции, FAQ!!!
Торрент  Добавлен [26 июн 2020, 16:51] Скачать торрент Магнет ссылка
Скачать торрент
[ Размер 15.8 КБ / Просмотров 3 ]

Статус
Проверен 
 
Размер  382.35 МБ
Приватный: Нет (DHT включён)
.torrent скачан  0
 


     Отправить личное сообщение
   
Страница 1 из 1
Показать сообщения за:  Поле сортировки  
Начать новую тему Ответить на тему


Сейчас этот форум просматривают: нет зарегистрированных пользователей и гости: 0


Вы не можете начинать темы
Вы не можете отвечать на сообщения
Вы не можете редактировать свои сообщения
Вы не можете удалять свои сообщения
Вы не можете добавлять вложения

Перейти:  
cron