Начать новую тему Ответить на тему
Статистика раздачи
Размер: 497.31 МБ | Добавлен: 26 июн 2020, 20:42 | Скачали: 0
Сидеров: 0  [0 байт/сек]    Личеров: 0  [0 байт/сек]
Пред. тема | След. тема 

Автор
Сообщение

СообщениеДобавлено: 26 июн 2020, 20:42 

Ответить с цитатой 

!Bang Elektronika - Struktur
Жанр: EBM, Synth-pop
Год выпуска диска: 2003
Производитель диска: Canada
Аудио кодек: FLAC
Тип рипа: image+.cue
Битрейт аудио: lossless
Продолжительность: 73:22 min
Источник: Официальный CDr
Треклист:
01. Metropolis (2002 remix)
02. This Heaven (2000)
03. temptation (German Moog Mix 2000)
04. TV Set (1999)
05. The Mask (1998)
06. Closer (1998)
07. Bib Vollgas (1995)
08. Aktivierung (rekonstrukshun Mix)
09. Krieg Live Satellit (2000 Mix)
10. Grossdadt Melodie (1991)
11. Aetzend (1989)
12. Audio Beat Warfare (1988)
13. Die Libido Sexualis (1988)
14. (not listed)
Код:
Exact Audio Copy V0.99 prebeta 5 from 4. May 2009
EAC extraction logfile from 24. July 2010, 12:45
!Bang Elektronika / Struktur
Used drive  : _NEC    DVD_RW ND-4551A   Adapter: 1  ID: 0
Read mode               : Secure
Utilize accurate stream : Yes
Defeat audio cache      : Yes
Make use of C2 pointers : No
Read offset correction                      : 48
Overread into Lead-In and Lead-Out          : No
Fill up missing offset samples with silence : Yes
Delete leading and trailing silent blocks   : No
Null samples used in CRC calculations       : Yes
Used interface                              : Native Win32 interface for Win NT & 2000
Used output format : Internal WAV Routines
Sample format      : 44.100 Hz; 16 Bit; Stereo
TOC of the extracted CD
     Track |   Start  |  Length  | Start sector | End sector
    ---------------------------------------------------------
        1  |  0:00.00 |  5:10.14 |         0    |    23263
        2  |  5:10.14 |  5:25.36 |     23264    |    47674
        3  | 10:35.50 |  5:39.63 |     47675    |    73162
        4  | 16:15.38 |  4:26.20 |     73163    |    93132
        5  | 20:41.58 |  7:04.58 |     93133    |   124990
        6  | 27:46.41 |  5:12.08 |    124991    |   148398
        7  | 32:58.49 |  3:35.08 |    148399    |   164531
        8  | 36:33.57 |  5:24.22 |    164532    |   188853
        9  | 41:58.04 |  4:24.59 |    188854    |   208712
       10  | 46:22.63 |  5:33.22 |    208713    |   233709
       11  | 51:56.10 |  6:01.35 |    233710    |   260819
       12  | 57:57.45 |  5:44.45 |    260820    |   286664
       13  | 63:42.15 |  3:55.54 |    286665    |   304343
       14  | 67:37.69 |  5:44.23 |    304344    |   330166
Range status and errors
Selected range
     Filename D:\EAC rips\!Bang Elektronika - Struktur.wav
     Peak level 100.0 %
     Range quality 99.9 %
     Test CRC 461CD323
     Copy CRC 461CD323
     Copy OK
No errors occurred
AccurateRip summary
Track  1  not present in database
Track  2  not present in database
Track  3  not present in database
Track  4  not present in database
Track  5  not present in database
Track  6  not present in database
Track  7  not present in database
Track  8  not present in database
Track  9  not present in database
Track 10  not present in database
Track 11  not present in database
Track 12  not present in database
Track 13  not present in database
Track 14  not present in database
None of the tracks are present in the AccurateRip database
End of status report
AUDIOCHECKER v2.0 beta (build 457) - by Dester - opdester@freemail.hu
~~~~~~~~~~~~~~~~~~~~~~~~~~~~~~~~~~
-=== DO NOT EDIT THIS FILE! ===-
Path: ...\EAC rips
1 -=- !Bang Elektronika - Struktur.flac -=- CDDA (100%)
112396228
Правила, инструкции, FAQ!!!
Торрент  Добавлен [26 июн 2020, 20:42] Скачать торрент Магнет ссылка
Скачать торрент
[ Размер 20.18 КБ / Просмотров 9 ]

Статус
Проверен 
 
Размер  497.31 МБ
Приватный: Нет (DHT включён)
.torrent скачан  0
 


     Отправить личное сообщение
   
Страница 1 из 1
Показать сообщения за:  Поле сортировки  
Начать новую тему Ответить на тему


Сейчас этот форум просматривают: нет зарегистрированных пользователей и гости: 0


Вы не можете начинать темы
Вы не можете отвечать на сообщения
Вы не можете редактировать свои сообщения
Вы не можете удалять свои сообщения
Вы не можете добавлять вложения

Перейти:  
cron