Начать новую тему Ответить на тему
Статистика раздачи
Размер: 2.02 ГБ | Добавлен: 26 июн 2020, 21:08 | Скачали: 1
Сидеров: 0  [0 байт/сек]    Личеров: 1  [0 байт/сек]
Пред. тема | След. тема 

Автор
Сообщение

СообщениеДобавлено: 26 июн 2020, 21:08 

Ответить с цитатой 

And One - Magnet (6CD) [Trilogie I - Premium Edition]
Жанр: EBM, Synth-pop
Страна-производитель диска: Germany
Год выпуска диска: 2014
Label: Deutschmaschine Schallplatten
Аудио кодек: Flac
Тип рипа: image+.cue
Продолжительность: 04:06:06
Источник (релизер): Рип с дисков из собственной коллекции
Наличие сканов в содержимом раздачи: да (600dpi)
#777Продолжительность: 00:44:17
(01) - Black Generation (5:33)
(02) - Mannermusik (3:08)
(03) - Synchronizing Bodies (4:43)
(04) - An Alle Krieger! (3:54)
(05) - Nyctophiliac (5:28)
(06) - 2 Tote (4:51)
(07) - Before I Go (5:14)
(08) - U-Boot-Krieg In Ost-Berlin (3:57)
(09) - Up & Down (3:12)
(10) - New Wave Mother (4:14)
Код:
Exact Audio Copy V1.0 beta 3 from 29. August 2011
EAC extraction logfile from 22. August 2014, 17:12
And One / Propeller
Used drive  : SONY    DVD RW AD-7260S   Adapter: 0  ID: 0
Read mode               : Secure
Utilize accurate stream : Yes
Defeat audio cache      : Yes
Make use of C2 pointers : No
Read offset correction                      : 48
Overread into Lead-In and Lead-Out          : No
Fill up missing offset samples with silence : Yes
Delete leading and trailing silent blocks   : No
Null samples used in CRC calculations       : Yes
Used interface                              : Native Win32 interface for Win NT & 2000
Used output format : Internal WAV Routines
Sample format      : 44.100 Hz; 16 Bit; Stereo
TOC of the extracted CD
     Track |   Start  |  Length  | Start sector | End sector
    ---------------------------------------------------------
        1  |  0:00.00 |  5:33.21 |         0    |    24995
        2  |  5:33.21 |  3:08.10 |     24996    |    39105
        3  |  8:41.31 |  4:43.10 |     39106    |    60340
        4  | 13:24.41 |  3:54.10 |     60341    |    77900
        5  | 17:18.51 |  5:28.61 |     77901    |   102561
        6  | 22:47.37 |  4:51.49 |    102562    |   124435
        7  | 27:39.11 |  5:14.47 |    124436    |   148032
        8  | 32:53.58 |  3:57.19 |    148033    |   165826
        9  | 36:51.02 |  3:12.12 |    165827    |   180238
       10  | 40:03.14 |  4:14.10 |    180239    |   199298
Range status and errors
Selected range
     Filename W:\Lossless Electronic Music\And One\Albums\2014 - Magnet (6CD) [Premium Edition]\1. Propeller (2CD)\CD1 - Propeller\And One - Propeller.wav
     Peak level 96.4 %
     Extraction speed 6.4 X
     Range quality 99.9 %
     Test CRC 1DFB2883
     Copy CRC 1DFB2883
     Copy OK
No errors occurred
AccurateRip summary
Track  1  not present in database
Track  2  not present in database
Track  3  not present in database
Track  4  not present in database
Track  5  not present in database
Track  6  not present in database
Track  7  not present in database
Track  8  not present in database
Track  9  not present in database
Track 10  not present in database
None of the tracks are present in the AccurateRip database
End of status report
==== Log checksum 9D8565B72A5C085D0ADE316B7D30A5BD44422564CB3EEB68B1BA3C6A2D159DDA ====
#777Продолжительность: 00:38:28
(01) - Die Mitte (3:36)
(02) - Seven (3:34)
(03) - Strafbomber (4:41)
(04) - Body Company (4:20)
(05) - Zerstorer (3:08)
(06) - Fur Immer (4:08)
(07) - Electrocution (3:57)
(08) - Sitata Tirulala (2:51)
(09) - Murder Murder (3:31)
(10) - The Aim Is In Your Head (4:37)
Код:
Exact Audio Copy V1.0 beta 3 from 29. August 2011
EAC extraction logfile from 22. August 2014, 17:46
And One / Live on Stage 1
Used drive  : SONY    DVD RW AD-7260S   Adapter: 0  ID: 0
Read mode               : Secure
Utilize accurate stream : Yes
Defeat audio cache      : Yes
Make use of C2 pointers : No
Read offset correction                      : 48
Overread into Lead-In and Lead-Out          : No
Fill up missing offset samples with silence : Yes
Delete leading and trailing silent blocks   : No
Null samples used in CRC calculations       : Yes
Used interface                              : Native Win32 interface for Win NT & 2000
Used output format : Internal WAV Routines
Sample format      : 44.100 Hz; 16 Bit; Stereo
TOC of the extracted CD
     Track |   Start  |  Length  | Start sector | End sector
    ---------------------------------------------------------
        1  |  0:00.00 |  3:36.32 |         0    |    16231
        2  |  3:36.32 |  3:34.48 |     16232    |    32329
        3  |  7:11.05 |  4:41.70 |     32330    |    53474
        4  | 11:53.00 |  4:20.30 |     53475    |    73004
        5  | 16:13.30 |  3:08.55 |     73005    |    87159
        6  | 19:22.10 |  4:08.28 |     87160    |   105787
        7  | 23:30.38 |  3:57.66 |    105788    |   123628
        8  | 27:28.29 |  2:51.31 |    123629    |   136484
        9  | 30:19.60 |  3:31.07 |    136485    |   152316
       10  | 33:50.67 |  4:37.18 |    152317    |   173109
Range status and errors
Selected range
     Filename W:\Lossless Electronic Music\And One\Albums\2014 - Magnet (6CD) [Premium Edition]\1. Propeller (2CD)\CD2 - Live on Stage 1\And One - Live on Stage 1.wav
     Peak level 97.1 %
     Extraction speed 6.4 X
     Range quality 100.0 %
     Test CRC D42D8D8B
     Copy CRC D42D8D8B
     Copy OK
No errors occurred
AccurateRip summary
Track  1  not present in database
Track  2  not present in database
Track  3  not present in database
Track  4  not present in database
Track  5  not present in database
Track  6  not present in database
Track  7  not present in database
Track  8  not present in database
Track  9  not present in database
Track 10  not present in database
None of the tracks are present in the AccurateRip database
End of status report
==== Log checksum 8A22A44E208D11DCFDB9E9DD51EAA1B45F0B1C58C903A40AA981A2904B472081 ====
#777Продолжительность: 00:45:12
(01) - Love Needs A Saving Hand (6:47)
(02) - Zeit Ohne Zeit (4:42)
(03) - Love Is Always On Your Side (5:28)
(04) - Unter Meiner Uniform (4:35)
(05) - The Other Side (3:20)
(06) - Love Me (4:14)
(07) - Keiner Fuhlt’s Wie Wir (4:12)
(08) - Everybody Lies At Night (8:38)
(09) - Fake Of Pleasure (3:25)
(10) - Dead Love (4:47)
Код:
Exact Audio Copy V1.0 beta 3 from 29. August 2011
EAC extraction logfile from 22. August 2014, 18:21
And One / Magnet
Used drive  : SONY    DVD RW AD-7260S   Adapter: 0  ID: 0
Read mode               : Secure
Utilize accurate stream : Yes
Defeat audio cache      : Yes
Make use of C2 pointers : No
Read offset correction                      : 48
Overread into Lead-In and Lead-Out          : No
Fill up missing offset samples with silence : Yes
Delete leading and trailing silent blocks   : No
Null samples used in CRC calculations       : Yes
Used interface                              : Native Win32 interface for Win NT & 2000
Used output format : Internal WAV Routines
Sample format      : 44.100 Hz; 16 Bit; Stereo
TOC of the extracted CD
     Track |   Start  |  Length  | Start sector | End sector
    ---------------------------------------------------------
        1  |  0:00.00 |  6:47.04 |         0    |    30528
        2  |  6:47.04 |  4:42.20 |     30529    |    51698
        3  | 11:29.24 |  5:28.21 |     51699    |    76319
        4  | 16:57.45 |  4:35.18 |     76320    |    96962
        5  | 21:32.63 |  3:20.57 |     96963    |   112019
        6  | 24:53.45 |  4:14.47 |    112020    |   131116
        7  | 29:08.17 |  4:12.59 |    131117    |   150075
        8  | 33:21.01 |  3:38.46 |    150076    |   166471
        9  | 36:59.47 |  3:25.65 |    166472    |   181911
       10  | 40:25.37 |  4:47.18 |    181912    |   203454
Range status and errors
Selected range
     Filename W:\Lossless Electronic Music\And One\Albums\2014 - Magnet (6CD) [Premium Edition]\2. Magnet (2CD)\CD1 - Magnet\And One - Magnet.wav
     Peak level 100.0 %
     Extraction speed 6.7 X
     Range quality 100.0 %
     Test CRC 89730BAF
     Copy CRC 89730BAF
     Copy OK
No errors occurred
AccurateRip summary
Track  1  not present in database
Track  2  not present in database
Track  3  not present in database
Track  4  not present in database
Track  5  not present in database
Track  6  not present in database
Track  7  not present in database
Track  8  not present in database
Track  9  not present in database
Track 10  not present in database
None of the tracks are present in the AccurateRip database
End of status report
==== Log checksum 014FEE3A8088571FBEC136DE68EAE8A91986027E65CE322536C6D53F49890147 ====
#777Продолжительность: 00:42:14
(01) - Dein Ende (2:41)
(02) - Fehlschlag (5:30)
(03) - Shining Star (3:30)
(04) - Friends In Heaven (3:34)
(05) - Love You To The End (3:44)
(06) - Wasted (4:23)
(07) - Killing The Mercy (5:28)
(08) - High (4:43)
(09) - Sometimes (5:07)
(10) - Dein Duft (3:20)
Код:
Exact Audio Copy V1.0 beta 3 from 29. August 2011
EAC extraction logfile from 22. August 2014, 18:49
And One / Live on Stage 2
Used drive  : SONY    DVD RW AD-7260S   Adapter: 0  ID: 0
Read mode               : Secure
Utilize accurate stream : Yes
Defeat audio cache      : Yes
Make use of C2 pointers : No
Read offset correction                      : 48
Overread into Lead-In and Lead-Out          : No
Fill up missing offset samples with silence : Yes
Delete leading and trailing silent blocks   : No
Null samples used in CRC calculations       : Yes
Used interface                              : Native Win32 interface for Win NT & 2000
Used output format : Internal WAV Routines
Sample format      : 44.100 Hz; 16 Bit; Stereo
TOC of the extracted CD
     Track |   Start  |  Length  | Start sector | End sector
    ---------------------------------------------------------
        1  |  0:00.00 |  2:41.07 |         0    |    12081
        2  |  2:41.07 |  5:30.17 |     12082    |    36848
        3  |  8:11.24 |  3:30.68 |     36849    |    52666
        4  | 11:42.17 |  3:34.67 |     52667    |    68783
        5  | 15:17.09 |  3:44.71 |     68784    |    85654
        6  | 19:02.05 |  4:23.05 |     85655    |   105384
        7  | 23:25.10 |  5:28.04 |    105385    |   129988
        8  | 28:53.14 |  4:43.36 |    129989    |   151249
        9  | 33:36.50 |  5:07.08 |    151250    |   174282
       10  | 38:43.58 |  3:30.27 |    174283    |   190059
Range status and errors
Selected range
     Filename W:\Lossless Electronic Music\And One\Albums\2014 - Magnet (6CD) [Premium Edition]\2. Magnet (2CD)\CD2 - Live on Stage 2\And One - Live on Stage 2.wav
     Peak level 96.6 %
     Extraction speed 6.3 X
     Range quality 100.0 %
     Test CRC F6F41BF5
     Copy CRC F6F41BF5
     Copy OK
No errors occurred
AccurateRip summary
Track  1  not present in database
Track  2  not present in database
Track  3  not present in database
Track  4  not present in database
Track  5  not present in database
Track  6  not present in database
Track  7  not present in database
Track  8  not present in database
Track  9  not present in database
Track 10  not present in database
None of the tracks are present in the AccurateRip database
End of status report
==== Log checksum F9FE5FBA5FB113741C8014D84EC007DE2304F2C67115FD8CA2B5CE24E8A84D98 ====
#777Продолжительность: 00:40:17
(01) - Let’s Get Higher (3:26)
(02) - My Angel (4:51)
(03) - She’s Triple 6 (4:27)
(04) - Somebody’s Song (3:36)
(05) - Bad Girl (3:38)
(06) - The Fighter (3:33)
(07) - Girls On Girls (3:14)
(08) - Why Don’t You Let Me Go (4:09)
(09) - Love Trashing Girls (3:56)
(10) - Your Pet Is A Ticking Bomb! (5:24)
Код:
Exact Audio Copy V1.0 beta 3 from 29. August 2011
EAC extraction logfile from 22. August 2014, 19:25
And One / Achtung 80
Used drive  : SONY    DVD RW AD-7260S   Adapter: 0  ID: 0
Read mode               : Secure
Utilize accurate stream : Yes
Defeat audio cache      : Yes
Make use of C2 pointers : No
Read offset correction                      : 48
Overread into Lead-In and Lead-Out          : No
Fill up missing offset samples with silence : Yes
Delete leading and trailing silent blocks   : No
Null samples used in CRC calculations       : Yes
Used interface                              : Native Win32 interface for Win NT & 2000
Used output format : Internal WAV Routines
Sample format      : 44.100 Hz; 16 Bit; Stereo
TOC of the extracted CD
     Track |   Start  |  Length  | Start sector | End sector
    ---------------------------------------------------------
        1  |  0:00.00 |  3:26.28 |         0    |    15477
        2  |  3:26.28 |  4:51.67 |     15478    |    37369
        3  |  8:18.20 |  4:27.38 |     37370    |    57432
        4  | 12:45.58 |  3:36.19 |     57433    |    73651
        5  | 16:22.02 |  3:38.19 |     73652    |    90020
        6  | 20:00.21 |  3:33.10 |     90021    |   106005
        7  | 23:33.31 |  3:14.19 |    106006    |   120574
        8  | 26:47.50 |  4:09.28 |    120575    |   139277
        9  | 30:57.03 |  3:56.10 |    139278    |   156987
       10  | 34:53.13 |  5:24.10 |    156988    |   181297
Range status and errors
Selected range
     Filename W:\Lossless Electronic Music\And One\Albums\2014 - Magnet (6CD) [Premium Edition]\3. Achtung 80 (2CD)\CD1 - Achtung 80\And One - Achtung 80.wav
     Peak level 98.7 %
     Extraction speed 6.4 X
     Range quality 99.9 %
     Test CRC E5C1BE1B
     Copy CRC E5C1BE1B
     Copy OK
No errors occurred
AccurateRip summary
Track  1  not present in database
Track  2  not present in database
Track  3  not present in database
Track  4  not present in database
Track  5  not present in database
Track  6  not present in database
Track  7  not present in database
Track  8  not present in database
Track  9  not present in database
Track 10  not present in database
None of the tracks are present in the AccurateRip database
End of status report
==== Log checksum 090D4CA0F645D879271505D6A7C5411D0F2CAC7E867421CDF997A362B605EFFB ====
#777Продолжительность: 00:35:38
(01) - Virgin Superstar (3:28)
(02) - Shice Guy (3:13)
(03) - Schmerzengel (3:09)
(04) - Loser (2:24)
(05) - Secret Boy (2:46)
(06) - Rick (5:07)
(07) - Goodbye Germany (3:39)
(08) - Paddy Is My DJ (4:27)
(09) - Life Isn't Easy In Germany (3:03)
(10) - Only One (4:18)
Код:
Exact Audio Copy V1.0 beta 3 from 29. August 2011
EAC extraction logfile from 22. August 2014, 19:53
And One / Live on Stage 3
Used drive  : SONY    DVD RW AD-7260S   Adapter: 0  ID: 0
Read mode               : Secure
Utilize accurate stream : Yes
Defeat audio cache      : Yes
Make use of C2 pointers : No
Read offset correction                      : 48
Overread into Lead-In and Lead-Out          : No
Fill up missing offset samples with silence : Yes
Delete leading and trailing silent blocks   : No
Null samples used in CRC calculations       : Yes
Used interface                              : Native Win32 interface for Win NT & 2000
Used output format : Internal WAV Routines
Sample format      : 44.100 Hz; 16 Bit; Stereo
TOC of the extracted CD
     Track |   Start  |  Length  | Start sector | End sector
    ---------------------------------------------------------
        1  |  0:00.00 |  3:28.54 |         0    |    15653
        2  |  3:28.54 |  3:13.62 |     15654    |    30190
        3  |  6:42.41 |  3:09.46 |     30191    |    44411
        4  |  9:52.12 |  2:24.03 |     44412    |    55214
        5  | 12:16.15 |  2:46.20 |     55215    |    67684
        6  | 15:02.35 |  5:07.53 |     67685    |    90762
        7  | 20:10.13 |  3:39.07 |     90763    |   107194
        8  | 23:49.20 |  4:27.55 |    107195    |   127274
        9  | 28:17.00 |  3:03.36 |    127275    |   141035
       10  | 31:20.36 |  4:18.12 |    141036    |   160397
Range status and errors
Selected range
     Filename W:\Lossless Electronic Music\And One\Albums\2014 - Magnet (6CD) [Premium Edition]\3. Achtung 80 (2CD)\CD2 - Live on Stage 3\And One - Live on Stage 3.wav
     Peak level 96.6 %
     Extraction speed 6.3 X
     Range quality 100.0 %
     Test CRC 72E41B02
     Copy CRC 72E41B02
     Copy OK
No errors occurred
AccurateRip summary
Track  1  not present in database
Track  2  not present in database
Track  3  not present in database
Track  4  not present in database
Track  5  not present in database
Track  6  not present in database
Track  7  not present in database
Track  8  not present in database
Track  9  not present in database
Track 10  not present in database
None of the tracks are present in the AccurateRip database
End of status report
==== Log checksum C0C80DF534A8B61AD86776C4298F1F9DDB86FF7F75CACB61887555CA91FAD882 ====
О релизе:
Буклет к диску (600dpi) внутри
Рип с диска сделан в режиме "Test & Copy"
Релиз подготовлен специально для RuTracker.org
Не забываем говорить Спасибо
Правила, инструкции, FAQ!!!
Торрент  Добавлен [26 июн 2020, 21:08] Скачать торрент Магнет ссылка
Скачать торрент
[ Размер 28.2 КБ / Просмотров 13 ]

Статус
Проверен 
 
Размер  2.02 ГБ
Приватный: Нет (DHT включён)
.torrent скачан  1
 


     Отправить личное сообщение
   
Страница 1 из 1
Показать сообщения за:  Поле сортировки  
Начать новую тему Ответить на тему


Сейчас этот форум просматривают: нет зарегистрированных пользователей и гости: 0


Вы не можете начинать темы
Вы не можете отвечать на сообщения
Вы не можете редактировать свои сообщения
Вы не можете удалять свои сообщения
Вы не можете добавлять вложения

Перейти:  
cron