Начать новую тему Ответить на тему
Статистика раздачи
Размер: 407.9 МБ | Добавлен: 26 июн 2020, 19:49 | Скачали: 0
Сидеров: 0  [0 байт/сек]    Личеров: 0  [0 байт/сек]
Пред. тема | След. тема 

Автор
Сообщение

СообщениеДобавлено: 26 июн 2020, 19:49 

Ответить с цитатой 

All The Ashes - Silence


Жанр: EBM | Synth Pop
Носитель: CD
Год издания: 2014
Издатель (лейбл): Boson Music / All The Ashes
Номер по каталогу: ATA05
Страна исполнителя (группы): Germany
Аудиокодек: FLAC (*.flac)
Тип рипа: image+.cue
Битрейт аудио: lossless
Продолжительность: 00:52:15
Источник (релизер): termoflex
Наличие сканов: да
Треклист:
01. We Break The Silence [00:02:04]
02. Silver Temples [00:04:57]
03. For And Against [00:04:43]
04. Midnight [00:03:37]
05. Elitar Und Unnahbar [00:04:02]
06. All The Towers [00:04:49]
07. Wunderland [00:04:33]
08. Chronostasis [00:05:44]
09. I'll Follow [00:03:49]
10. Implantat [00:04:11]
11. Kommando Liebe [00:04:50]
12. Golden Sky [00:04:48]


Код:
Exact Audio Copy V1.0 beta 3 from 29. August 2011
Отчёт EAC об извлечении, выполненном 1. июля 2014, 13:33
All The Ashes / Silence
Дисковод: hp      DVD-RAM UJ8B1   Adapter: 0  ID: 2
Режим чтения                 : Достоверность
Использование точного потока : Да
Отключение кэша аудио        : Да
Использование указателей C2  : Нет
Коррекция смещения при чтении                     : 6
Способность читать области Lead-in и Lead-out     : Нет
Заполнение пропущенных сэмплов тишиной            : Да
Удаление блоков с тишиной в начале и конце        : Нет
При вычислениях CRC использовались нулевые сэмплы : Да
Интерфейс                                         : Встроенный Win32-интерфейс для Win NT/2000
Выходной формат          : Пользовательский кодировщик
Выбранный битрейт        : 1024 kBit/s
Качество                 : Высокий
Добавление ID3-тега      : Нет
Утилита сжатия           : C:\Program Files (x86)\Exact Audio Copy\FLAC\FLAC.EXE
Дополнительные параметры : -V -8 -T "Date=%year%" -T "Genre=%genre%" -T "Comment=ripped by termoflex" %source%
TOC извлечённого CD
     Трек |   Старт  | Длительность | Начальный сектор | Конечный сектор
    ---------------------------------------------------------------------
       1  |  0:00.00 |    2:04.44   |           0      |       9343
       2  |  2:04.44 |    4:57.01   |        9344      |      31619
       3  |  7:01.45 |    4:43.41   |       31620      |      52885
       4  | 11:45.11 |    3:37.63   |       52886      |      69223
       5  | 15:22.74 |    4:04.60   |       69224      |      87583
       6  | 19:27.59 |    4:49.30   |       87584      |     109288
       7  | 24:17.14 |    4:33.07   |      109289      |     129770
       8  | 28:50.21 |    5:44.24   |      129771      |     155594
       9  | 34:34.45 |    3:49.55   |      155595      |     172824
      10  | 38:24.25 |    4:11.30   |      172825      |     191679
      11  | 42:35.55 |    4:50.74   |      191680      |     213503
      12  | 47:26.54 |    4:48.36   |      213504      |     235139
Характеристики диапазона извлечения и сообщения об ошибках
Выбранный диапазон
     Имя файла C:\Users\HP\Music\All The Ashes - Silence.wav
     Пиковый уровень 100.0 %
     Скорость извлечения 4.3 X
     Качество диапазона 100.0 %
     CRC теста CBE6DF0D
     CRC копии CBE6DF0D
     Копирование... OK
Ошибок не произошло
AccurateRip: сводка
Трек  1  отсутствует в базе данных
Трек  2  отсутствует в базе данных
Трек  3  отсутствует в базе данных
Трек  4  отсутствует в базе данных
Трек  5  отсутствует в базе данных
Трек  6  отсутствует в базе данных
Трек  7  отсутствует в базе данных
Трек  8  отсутствует в базе данных
Трек  9  отсутствует в базе данных
Трек 10  отсутствует в базе данных
Трек 11  отсутствует в базе данных
Трек 12  отсутствует в базе данных
Ни одного трека нет в базе AccurateRip
Конец отчёта
---- CUETools DB Plugin V2.1.4
[CTDB TOCID: cYAQoUM8pmTSXDzO9f2SWnH_qDc-] disk not present in database
Submit result: cYAQoUM8pmTSXDzO9f2SWnH_qDc- has been uploaded
==== Контрольная сумма отчёта 2D9A26BA39E4974D7F2F87BCA968B829334CDB0960FFA530219C17C575C9A7E8 ====
Код:
REM GENRE EBM
REM DATE 2014
REM DISCID A50C3F0C
REM COMMENT "ExactAudioCopy v1.0b3"
PERFORMER "All The Ashes"
TITLE "Silence"
FILE "All The Ashes - Silence.flac" WAVE
  TRACK 01 AUDIO
    TITLE "We Break The Silence"
    PERFORMER "All The Ashes"
    INDEX 01 00:00:00
  TRACK 02 AUDIO
    TITLE "Silver Temples"
    PERFORMER "All The Ashes"
    INDEX 01 02:04:44
  TRACK 03 AUDIO
    TITLE "For And Against"
    PERFORMER "All The Ashes"
    INDEX 01 07:01:45
  TRACK 04 AUDIO
    TITLE "Midnight"
    PERFORMER "All The Ashes"
    INDEX 01 11:45:11
  TRACK 05 AUDIO
    TITLE "Elitar Und Unnahbar"
    PERFORMER "All The Ashes"
    INDEX 01 15:22:74
  TRACK 06 AUDIO
    TITLE "All The Towers"
    PERFORMER "All The Ashes"
    INDEX 00 19:25:59
    INDEX 01 19:27:59
  TRACK 07 AUDIO
    TITLE "Wunderland"
    PERFORMER "All The Ashes"
    INDEX 01 24:17:14
  TRACK 08 AUDIO
    TITLE "Chronostasis"
    PERFORMER "All The Ashes"
    INDEX 01 28:50:21
  TRACK 09 AUDIO
    TITLE "I'll Follow"
    PERFORMER "All The Ashes"
    INDEX 01 34:34:45
  TRACK 10 AUDIO
    TITLE "Implantat"
    PERFORMER "All The Ashes"
    INDEX 01 38:24:25
  TRACK 11 AUDIO
    TITLE "Kommando Liebe"
    PERFORMER "All The Ashes"
    INDEX 01 42:35:55
  TRACK 12 AUDIO
    TITLE "Golden Sky"
    PERFORMER "All The Ashes"
    INDEX 01 47:26:54
Код:
-----------------------
DON'T MODIFY THIS FILE
-----------------------
PERFORMER: auCDtect Task Manager, ver. 1.5.1RC6 build 1.5.1.7
Copyright (c) 2008-2010 y-soft. All rights reserved
[url=http://y-soft.org]http://y-soft.org[/url]
ANALYZER: auCDtect: CD records authenticity detector, version 0.8.2
Copyright (c) 2004 Oleg Berngardt. All rights reserved.
Copyright (c) 2004 Alexander Djourik. All rights reserved.
FILE: All The Ashes - Silence.flac
  Size: 369530812 Hash: 944D4EE7BDC3D61D9FC4DA4383F3CBD3 Accuracy: -m0
  Conclusion: MPEG 95%
  Signature: 984D3CE79673B915CFBB843CCDBE9390DAC8F605
Правила, инструкции, FAQ!!!
Торрент  Добавлен [26 июн 2020, 19:49] Скачать торрент Магнет ссылка
Скачать торрент
[ Размер 17 КБ / Просмотров 9 ]

Статус
Проверен 
 
Размер  407.9 МБ
Приватный: Нет (DHT включён)
.torrent скачан  0
 


     Отправить личное сообщение
   
Страница 1 из 1
Показать сообщения за:  Поле сортировки  
Начать новую тему Ответить на тему


Сейчас этот форум просматривают: нет зарегистрированных пользователей и гости: 0


Вы не можете начинать темы
Вы не можете отвечать на сообщения
Вы не можете редактировать свои сообщения
Вы не можете удалять свои сообщения
Вы не можете добавлять вложения

Перейти:  
cron