Начать новую тему Ответить на тему
Статистика раздачи
Размер: 349.3 МБ | Добавлен: 26 июн 2020, 17:05 | Скачали: 0
Сидеров: 0  [0 байт/сек]    Личеров: 0  [0 байт/сек]
Пред. тема | След. тема 

Автор
Сообщение

СообщениеДобавлено: 26 июн 2020, 17:05 

Ответить с цитатой 

All The Ashes - Schwarz Macht Schlank


Жанр: EBM | Synth Pop
Носитель: CD
Год издания: 2007
Издатель (лейбл): All The Ashes / Boson Music
Номер по каталогу: ATA 003
Страна исполнителя (группы): Germany
Аудиокодек: FLAC (*.flac)
Тип рипа: image+.cue
Битрейт аудио: lossless
Продолжительность: 00:50:00
Источник (релизер): termoflex
Наличие сканов: да
Треклист:
01. Sternenreiter [00:04:32]
02. Schwarz Macht Schlank [00:05:26]
03. Untertan [00:04:32]
04. Der Freie Wille [00:04:01]
05. Tanzt [00:03:42]
06. Auf Allen Wegen [00:04:40]
07. Superikone Macht Schlanker [00:03:46]
08. Schwarz Macht Schlank (Halo Mix) [00:05:28]
09. Schwarz Macht Schlank (Elektrokill Mix) [00:04:57]
10. Schwarz Macht Schlank (Long-Hair Mix) [00:08:45]


Код:
Exact Audio Copy V1.0 beta 3 from 29. August 2011
Отчёт EAC об извлечении, выполненном 4. декабря 2012, 14:44
All The Ashes / Schwarz Macht Schlank
Дисковод: PIONEER DVD-RW  DVR-XD10   Adapter: 1  ID: 0
Режим чтения                 : Достоверность
Использование точного потока : Да
Отключение кэша аудио        : Да
Использование указателей C2  : Нет
Коррекция смещения при чтении                     : 96
Способность читать области Lead-in и Lead-out     : Нет
Заполнение пропущенных сэмплов тишиной            : Да
Удаление блоков с тишиной в начале и конце        : Нет
При вычислениях CRC использовались нулевые сэмплы : Да
Интерфейс                                         : Встроенный Win32-интерфейс для Win NT/2000
Выходной формат          : Пользовательский кодировщик
Выбранный битрейт        : 1024 kBit/s
Качество                 : Высокий
Добавление ID3-тега      : Нет
Утилита сжатия           : C:\Program Files\Exact Audio Copy\FLAC\FLAC.EXE
Дополнительные параметры : -V -8 -T "Date=%year%" -T "Genre=%genre%" %source%
TOC извлечённого CD
     Трек |   Старт  | Длительность | Начальный сектор | Конечный сектор
    ---------------------------------------------------------------------
       1  |  0:02.00 |    4:34.31   |         150      |      20730
       2  |  4:36.31 |    5:26.14   |       20731      |      45194
       3  | 10:02.45 |    4:34.00   |       45195      |      65744
       4  | 14:36.45 |    4:02.03   |       65745      |      83897
       5  | 18:38.48 |    3:42.02   |       83898      |     100549
       6  | 22:20.50 |    4:40.47   |      100550      |     121596
       7  | 27:01.22 |    3:48.38   |      121597      |     138734
       8  | 30:49.60 |    5:28.49   |      138735      |     163383
       9  | 36:18.34 |    4:57.03   |      163384      |     185661
      10  | 41:15.37 |    8:45.28   |      185662      |     225064
Характеристики диапазона извлечения и сообщения об ошибках
Выбранный диапазон
     Имя файла C:\Users\Алексей\Desktop\iPOD\All The Ashes - Schwarz Macht Schlank.wav
     Пиковый уровень 100.0 %
     Скорость извлечения 3.9 X
     Качество диапазона 100.0 %
     CRC теста AF717278
     CRC копии AF717278
     Копирование... OK
Ошибок не произошло
AccurateRip: сводка
Трек  1  отсутствует в базе данных
Трек  2  : извлечено точно (доверие 1)  [6D62A784]  (AR v1)
Трек  3  отсутствует в базе данных
Трек  4  отсутствует в базе данных
Трек  5  отсутствует в базе данных
Трек  6  отсутствует в базе данных
Трек  7  отсутствует в базе данных
Трек  8  отсутствует в базе данных
Трек  9  отсутствует в базе данных
Трек 10  отсутствует в базе данных
 1 трек(и) скопированы точно
 9 трек(и) не содержатся в базе AccurateRip
Некоторые треки не прошли проверку на точность
Конец отчёта
==== Контрольная сумма отчёта 7E20F590E415E3D272B97CDC8D7B7091CF5A2D68E8974F28A303B6E853CD45B1 ====
Код:
REM GENRE EBM
REM DATE 2007
REM DISCID 7E0BB60A
REM COMMENT "ExactAudioCopy v1.0b3"
PERFORMER "All The Ashes"
TITLE "Schwarz Macht Schlank "
FILE "All The Ashes - Schwarz Macht Schlank.flac" WAVE
  TRACK 01 AUDIO
    TITLE "Sternenreiter"
    PERFORMER "All The Ashes"
    INDEX 00 00:00:00
    INDEX 01 00:02:00
  TRACK 02 AUDIO
    TITLE "Schwarz Macht Schlank"
    PERFORMER "All The Ashes"
    INDEX 00 04:34:31
    INDEX 01 04:36:31
  TRACK 03 AUDIO
    TITLE "Untertan"
    PERFORMER "All The Ashes"
    INDEX 01 10:02:45
  TRACK 04 AUDIO
    TITLE "Der Freie Wille"
    PERFORMER "All The Ashes"
    INDEX 00 14:34:45
    INDEX 01 14:36:45
  TRACK 05 AUDIO
    TITLE "Tanzt"
    PERFORMER "All The Ashes"
    INDEX 00 18:37:73
    INDEX 01 18:38:48
  TRACK 06 AUDIO
    TITLE "Auf Allen Wegen"
    PERFORMER "All The Ashes"
    INDEX 01 22:20:50
  TRACK 07 AUDIO
    TITLE "Superikone Macht Schlanker"
    PERFORMER "All The Ashes"
    INDEX 01 27:01:22
  TRACK 08 AUDIO
    TITLE "Schwarz Macht Schlank (Halo Mix)"
    PERFORMER "All The Ashes"
    INDEX 00 30:47:60
    INDEX 01 30:49:60
  TRACK 09 AUDIO
    TITLE "Schwarz Macht Schlank (Elektrokill Mix)"
    PERFORMER "All The Ashes"
    INDEX 01 36:18:34
  TRACK 10 AUDIO
    TITLE "Schwarz Macht Schlank (Long-Hair Mix)"
    PERFORMER "All The Ashes"
    INDEX 01 41:15:37
Код:
-----------------------
DON'T MODIFY THIS FILE
-----------------------
PERFORMER: auCDtect Task Manager, ver. 1.5.1RC6 build 1.5.1.7
Copyright (c) 2008-2010 y-soft. All rights reserved
[url=http://y-soft.org]http://y-soft.org[/url]
ANALYZER: auCDtect: CD records authenticity detector, version 0.8.2
Copyright (c) 2004 Oleg Berngardt. All rights reserved.
Copyright (c) 2004 Alexander Djourik. All rights reserved.
FILE: All The Ashes - Schwarz Macht Schlank.flac
  Size: 350109072 Hash: 030EB9015FD196CDE5E6E12D0E8D2F49 Accuracy: -m0
  Conclusion: CDDA 100%
  Signature: 998AAFA4B4C797948FBDEC912A991F0F0D4A6DFB
Правила, инструкции, FAQ!!!
Торрент  Добавлен [26 июн 2020, 17:05] Скачать торрент Магнет ссылка
Скачать торрент
[ Размер 14.63 КБ / Просмотров 4 ]

Статус
Проверен 
 
Размер  349.3 МБ
Приватный: Нет (DHT включён)
.torrent скачан  0
 


     Отправить личное сообщение
   
Страница 1 из 1
Показать сообщения за:  Поле сортировки  
Начать новую тему Ответить на тему


Сейчас этот форум просматривают: нет зарегистрированных пользователей и гости: 0


Вы не можете начинать темы
Вы не можете отвечать на сообщения
Вы не можете редактировать свои сообщения
Вы не можете удалять свои сообщения
Вы не можете добавлять вложения

Перейти:  
cron