Начать новую тему Ответить на тему
Статистика раздачи
Размер: 398.09 МБ | Добавлен: 26 июн 2020, 19:48 | Скачали: 0
Сидеров: 0  [0 байт/сек]    Личеров: 0  [0 байт/сек]
Пред. тема | След. тема 

Автор
Сообщение

СообщениеДобавлено: 26 июн 2020, 19:48 

Ответить с цитатой 

All The Ashes - Gottesteilchen


Жанр: EBM | Synth Pop
Носитель: CD
Год издания: 2011
Издатель (лейбл): All The Ashes / Boson Music
Номер по каталогу: ATA 004
Страна исполнителя (группы): termoflex
Аудиокодек: FLAC (*.flac)
Тип рипа: image+.cue
Битрейт аудио: lossless
Продолжительность: 00:52:33
Источник (релизер): termoflex
Наличие сканов : да
Треклист:
01. Alien Species Zero [00:04:51]
02. Mann Im Mond [00:03:49]
03. Gottesteilchen [00:04:19]
04. Kopfkino [00:03:49]
05. Wind [00:03:44]
06. ANA [00:04:12]
07. Alte Geister [00:04:45]
08. Alone [00:07:07]
09. Herz Aus Stahl [00:04:39]
10. Hate Is A Four Letter Word [00:05:36]
11. Down The Drain [00:05:18]


Код:
Exact Audio Copy V1.0 beta 3 from 29. August 2011
Отчёт EAC об извлечении, выполненном 4. декабря 2012, 14:11
All The Ashes / Gottesteilchen
Дисковод: PIONEER DVD-RW  DVR-XD10   Adapter: 1  ID: 0
Режим чтения                 : Достоверность
Использование точного потока : Да
Отключение кэша аудио        : Да
Использование указателей C2  : Нет
Коррекция смещения при чтении                     : 96
Способность читать области Lead-in и Lead-out     : Нет
Заполнение пропущенных сэмплов тишиной            : Да
Удаление блоков с тишиной в начале и конце        : Нет
При вычислениях CRC использовались нулевые сэмплы : Да
Интерфейс                                         : Встроенный Win32-интерфейс для Win NT/2000
Выходной формат          : Пользовательский кодировщик
Выбранный битрейт        : 1024 kBit/s
Качество                 : Высокий
Добавление ID3-тега      : Нет
Утилита сжатия           : C:\Program Files\Exact Audio Copy\FLAC\FLAC.EXE
Дополнительные параметры : -V -8 -T "Date=%year%" -T "Genre=%genre%" %source%
TOC извлечённого CD
     Трек |   Старт  | Длительность | Начальный сектор | Конечный сектор
    ---------------------------------------------------------------------
       1  |  0:00.00 |    4:51.22   |           0      |      21846
       2  |  4:51.22 |    3:51.53   |       21847      |      39224
       3  |  8:43.00 |    4:21.43   |       39225      |      58842
       4  | 13:04.43 |    3:51.66   |       58843      |      76233
       5  | 16:56.34 |    3:44.12   |       76234      |      93045
       6  | 20:40.46 |    4:13.25   |       93046      |     112045
       7  | 24:53.71 |    4:48.05   |      112046      |     133650
       8  | 29:42.01 |    7:10.06   |      133651      |     165906
       9  | 36:52.07 |    4:41.42   |      165907      |     187023
      10  | 41:33.49 |    5:38.65   |      187024      |     212438
      11  | 47:12.39 |    5:21.22   |      212439      |     236535
Характеристики диапазона извлечения и сообщения об ошибках
Выбранный диапазон
     Имя файла C:\Users\Алексей\Desktop\iPOD\All The Ashes - Gottesteilchen.wav
     Пиковый уровень 97.8 %
     Скорость извлечения 3.8 X
     Качество диапазона 99.9 %
     CRC теста 02D38CAC
     CRC копии 02D38CAC
     Копирование... OK
Ошибок не произошло
AccurateRip: сводка
Трек  1  отсутствует в базе данных
Трек  2  отсутствует в базе данных
Трек  3  отсутствует в базе данных
Трек  4  отсутствует в базе данных
Трек  5  отсутствует в базе данных
Трек  6  отсутствует в базе данных
Трек  7  отсутствует в базе данных
Трек  8  отсутствует в базе данных
Трек  9  отсутствует в базе данных
Трек 10  отсутствует в базе данных
Трек 11  отсутствует в базе данных
Ни одного трека нет в базе AccurateRip
Конец отчёта
==== Контрольная сумма отчёта 67D5C894E8E40A2E03FB8A9E83FAAFDD6F99E82B3D7B3479C4CFF5A0116642AB ====
Код:
REM GENRE EBM
REM DATE 2011
REM DISCID 990C510B
REM COMMENT "ExactAudioCopy v1.0b3"
PERFORMER "All The Ashes"
TITLE "Gottesteilchen"
FILE "All The Ashes - Gottesteilchen.flac" WAVE
  TRACK 01 AUDIO
    TITLE "Alien Species Zero"
    PERFORMER "All The Ashes"
    INDEX 01 00:00:00
  TRACK 02 AUDIO
    TITLE "Mann Im Mond"
    PERFORMER "All The Ashes"
    INDEX 01 04:51:22
  TRACK 03 AUDIO
    TITLE "Gottesteilchen"
    PERFORMER "All The Ashes"
    INDEX 00 08:40:63
    INDEX 01 08:43:00
  TRACK 04 AUDIO
    TITLE "Kopfkino"
    PERFORMER "All The Ashes"
    INDEX 00 13:02:34
    INDEX 01 13:04:43
  TRACK 05 AUDIO
    TITLE "Wind"
    PERFORMER "All The Ashes"
    INDEX 00 16:54:33
    INDEX 01 16:56:34
  TRACK 06 AUDIO
    TITLE "ANA"
    PERFORMER "All The Ashes"
    INDEX 01 20:40:46
  TRACK 07 AUDIO
    TITLE "Alte Geister"
    PERFORMER "All The Ashes"
    INDEX 00 24:53:13
    INDEX 01 24:53:71
  TRACK 08 AUDIO
    TITLE "Alone"
    PERFORMER "All The Ashes"
    INDEX 00 29:39:64
    INDEX 01 29:42:01
  TRACK 09 AUDIO
    TITLE "Herz Aus Stahl"
    PERFORMER "All The Ashes"
    INDEX 00 36:49:16
    INDEX 01 36:52:07
  TRACK 10 AUDIO
    TITLE "Hate Is A Four Letter Word"
    PERFORMER "All The Ashes"
    INDEX 00 41:31:35
    INDEX 01 41:33:49
  TRACK 11 AUDIO
    TITLE "Down The Drain"
    PERFORMER "All The Ashes"
    INDEX 00 47:09:57
    INDEX 01 47:12:39
Код:
-----------------------
DON'T MODIFY THIS FILE
-----------------------
PERFORMER: auCDtect Task Manager, ver. 1.5.1RC6 build 1.5.1.7
Copyright (c) 2008-2010 y-soft. All rights reserved
[url=http://y-soft.org]http://y-soft.org[/url]
ANALYZER: auCDtect: CD records authenticity detector, version 0.8.2
Copyright (c) 2004 Oleg Berngardt. All rights reserved.
Copyright (c) 2004 Alexander Djourik. All rights reserved.
FILE: All The Ashes - Gottesteilchen.flac
  Size: 370622098 Hash: CDAFF1E9CD37B5FD5BD53B3AC7A9E6A3 Accuracy: -m0
  Conclusion: CDDA 100%
  Signature: 0EBF473E250015D3DFDB879CC11717537EF1F893
Правила, инструкции, FAQ!!!
Торрент  Добавлен [26 июн 2020, 19:48] Скачать торрент Магнет ссылка
Скачать торрент
[ Размер 16.65 КБ / Просмотров 10 ]

Статус
Проверен 
 
Размер  398.09 МБ
Приватный: Нет (DHT включён)
.torrent скачан  0
 


     Отправить личное сообщение
   
Страница 1 из 1
Показать сообщения за:  Поле сортировки  
Начать новую тему Ответить на тему


Сейчас этот форум просматривают: нет зарегистрированных пользователей и гости: 0


Вы не можете начинать темы
Вы не можете отвечать на сообщения
Вы не можете редактировать свои сообщения
Вы не можете удалять свои сообщения
Вы не можете добавлять вложения

Перейти:  
cron